img image001 image001 image001 image001 image001 image001 image001 image001 image001 image001 image001 image001 image001 image001 image001

Planets Sun Sun Sun
Статистика раздачи
Автор: Снежана | Размер: 3.44 ГБ | Добавлен: 27 июл 2013
Раздают: 8    Качают: 2
Скачать торрент
Скачать торрент
Описание торрента

СообщениеДобавлено: 27 июл 2013 

#77

Информация о фильме
Оригинальное название: Ку! Кин-дза-дза
Год выпуска: 2013
Жанр: Мультфильм, фантастика, комедия, ремейк
Выпущено: Россия, Первый канал, Кинокомпания CTB, Ритм, Югра-фильм
Режиссер: Георгий Данелия, Татьяна Ильина
В ролях: Николай Губенко, Иван Цехмистренко, Андрей Леонов, Алексей Колган, Александр Адабашьян, Георгий Данелия, Игорь Кваша, Вахтанг Кикабидзе, Галина Данелия-Юркова, Полина Кутепова

О фильме: Начинающий диджей Толик и всемирно известный виолончелист Владимир Чижов встречают на шумной московской улице босого человека. Нажав на кнопку странной машинки, герои перемещаются на пустынную планету Плюк. Анимационный ремейк любимого всеми фильма «Кин-дза-дза!» не менее увлекательно и смешно, чем оригинал, рассказывает о приключениях Толика и дяди Вовы. В этом мире песка жители делятся на две категории — пацаков и плюкан, простая спичка обладает невероятной ценностью, а людей встречают и провожают по цвету штанов.



Качество: BDRip (720p)
Видео: MPEG-4 AVC, 3600 Кбит/с, 1280х720
Аудио: DTS, 6 ch, 1510 Кбит/с
Размер: 3.44 ГБ
Продолжительность: 01:36:27
Язык: Русский
Субтитры: Английские

Format : Matroska
Format version : Version 4 / Version 2
File size : 3.44 GiB
Duration : 1h 36mn
Overall bit rate : 5 111 Kbps
Movie name : CMEGRoup
Encoded date : UTC 2013-05-14 14:38:10
Writing application : mkvmerge v6.1.0 ('Old Devil') built on Mar 2 2013 14:32:37
Writing library : libebml v1.3.0 + libmatroska v1.4.0
Video
ID : 1
Format : AVC
Format/Info : Advanced Video Codec
Format profile : High@L4.1
Format settings, CABAC : Yes
Format settings, ReFrames : 9 frames
Codec ID : V_MPEG4/ISO/AVC
Duration : 1h 36mn
Bit rate : 3 600 Kbps
Width : 1 280 pixels
Height : 720 pixels
Display aspect ratio : 16:9
Frame rate mode : Constant
Frame rate : 23.976 fps
Color space : YUV
Chroma subsampling : 4:2:0
Bit depth : 8 bits
Scan type : Progressive
Bits/(Pixel*Frame) : 0.163
Stream size : 2.36 GiB (68%)
Writing library : x264 core 132 r2310 76a5c3a
Encoding settings : cabac=1 / ref=9 / deblock=1:-3:-3 / analyse=0x3:0x113 / me=umh / subme=11 / psy=1 / psy_rd=1.00:0.00 / mixed_ref=1 / me_range=24 / chroma_me=1 / trellis=2 / 8x8dct=1 / cqm=0 / deadzone=21,11 / fast_pskip=1 / chroma_qp_offset=-2 / threads=6 / lookahead_threads=1 / sliced_threads=0 / nr=0 / decimate=1 / interlaced=0 / bluray_compat=0 / constrained_intra=0 / bframes=5 / b_pyramid=2 / b_adapt=2 / b_bias=0 / direct=2 / weightb=0 / open_gop=0 / weightp=2 / keyint=240 / keyint_min=23 / scenecut=40 / intra_refresh=0 / rc_lookahead=40 / rc=2pass / mbtree=1 / bitrate=3600 / ratetol=1.0 / qcomp=0.60 / qpmin=0 / qpmax=69 / qpstep=4 / cplxblur=20.0 / qblur=0.5 / vbv_maxrate=62500 / vbv_bufsize=78125 / nal_hrd=none / ip_ratio=1.40 / aq=1:1.00 / zones=134440,138752,q=40
Language : English
Default : Yes
Forced : No
Audio
ID : 2
Format : DTS
Format/Info : Digital Theater Systems
Mode : 16
Format settings, Endianness : Big
Codec ID : A_DTS
Duration : 1h 36mn
Bit rate mode : Constant
Bit rate : 1 509 Kbps
Channel(s) : 6 channels
Channel positions : Front: L C R, Side: L R, LFE
Sampling rate : 48.0 KHz
Bit depth : 16 bits
Compression mode : Lossy
Stream size : 1.02 GiB (30%)
Default : Yes
Forced : No
Text
ID : 3
Format : UTF-8
Codec ID : S_TEXT/UTF8
Codec ID/Info : UTF-8 Plain Text
Language : English
Default : Yes
Forced : No





Релиз от:
Торен перезалит
Улучшен видеорд!



   Похожие торренты   Торрент   Размер 
В этой теме нет новых непрочитанных сообщений. Полицейская история 2013 / Police Story 2013 / Jing Cha Gu Shi 2013 (2013) BDRip 720p от CINEMANIA| L2

205 | 108

6.33 ГБ

В этой теме нет новых непрочитанных сообщений. Полицейская история 2013 / Jing cha gu shi 2013 (2013) BDRip 720p от Leonardo and Scarabey | L2

199 | 93

2.73 ГБ

В этой теме нет новых непрочитанных сообщений. Mylene Farmer: Timeless 2013 - Le Film (2013) BDRip 720p

159 | 51

4.37 ГБ

В этой теме нет новых непрочитанных сообщений. Конец света 2013: Апокалипсис по-голливудски / This Is the End (2013) BDRip 720p | D, A

282 | 9

4.37 ГБ

В этой теме нет новых непрочитанных сообщений. Библия / The Bible [S01] (2013) HDTVRip 720p, BDRip 720p | Baibako

20 | 6

22.21 ГБ

В этой теме нет новых непрочитанных сообщений. Конец света 2013: Апокалипсис по-голливудски / This Is the End (2013) BDRip 720p от leonardo 59 & Scarabey | Лицензия

89 | 14

2.76 ГБ

В этой теме нет новых непрочитанных сообщений. Отбросы / Misfits [S01-05] (2009-2013) BDRip 720p, WEB-DLRip 720p | Кубик в Кубе

234 | 287

55.75 ГБ




Вы не можете начинать темы
Вы не можете отвечать на сообщения
Вы не можете редактировать свои сообщения
Вы не можете удалять свои сообщения
Вы не можете добавлять вложения

Перейти:  
Для Мосгорсуда, Роскомнадзора и рекламодателей: mosgorsud-torrent[собачка]yandex.ru
 Вход
ppkBB3cker v.2 © 2008-2014 @ PPK
[ Time : 0.094s | 14 Queries | GZIP : Off ]

Торрент трекер RUTOR.IN, Не можете зайти на rutor.org? Какой новый адрес рутор? Какое зеркало рутор? Не работает rutor.org и зеркала? Тогда наш торрент специально для вас. Rutor.in неофициальное зеркало rutor. В случае если у Вас заблокирован rutor или вдруг Вы не можете на него зайти, то Вы без труда сможете скачать бесплатно и без рекламы последние новинки кино, игр, сериалов и прочего у нас, на Rutor.in. Не нужно использовать прокси, чтобы зайти на рутор, достаточно воспользоваться нашим ресурсом. Все новые фильмы, игры, сериалы, книги и музыка за 2013 и 2014 годы через торрент бесплатно. Скачивайте фильмы в хорошем качестве, игры для пк, xbox, playstation без регистрации. У нас вы найдете новые Зарубежные сериалы и Русские сериалы 2013, 2014, 2015 годов. Оставайтесь с нами, качайте любимые фильмы, игры, сериалы, книги и музыку.