img image001 image001 image001 image001 image001 image001 image001 image001 image001 image001 image001 image001 image001 image001 image001

Planets Sun Sun Sun
Статистика раздачи
Автор: Снежана | Размер: 2.19 ГБ | Добавлен: 27 июл 2013
Раздают: 195    Качают: 11
Скачать торрент
Скачать торрент
Описание торрента

СообщениеДобавлено: 27 июл 2013 

#77

Информация о фильме
Название: Ку! Кин-дза-дза
Год выхода: 2013
Жанр: мультфильм, фантастика, комедия
Режиссер: Георгий Данелия, Татьяна Ильина
В ролях: Николай Губенко, Иван Цехмистренко, Андрей Леонов, Алексей Колган, Александр Адабашьян, Георгий Данелия, Игорь Кваша, Вахтанг Кикабидзе, Галина Данелия-Юркова, Полина Кутепова

О фильме: Начинающий диджей Толик и всемирно известный виолончелист Владимир Чижов встречают на шумной московской улице босого человека. Нажав на кнопку странной машинки, герои перемещаются на пустынную планету Плюк. Анимационный ремейк любимого всеми фильма «Кин-дза-дза!» не менее увлекательно и смешно, чем оригинал, рассказывает о приключениях Толика и дяди Вовы. В этом мире песка жители делятся на две категории — пацаков и чатлан, простая спичка обладает невероятной ценностью, а людей встречают и провожают по цвету штанов.



Выпущено: Кинокомпания CTB
Продолжительность: 01:36:27
Перевод: Оригинал (лицензия)

Файл
Кодек: x264
Качество: BDRip (источник: Blu-ray Disc)
Видео: 1920x1080 (16:9), 23.976 fps, 2800 kbps
Аудио: AC-3, 6 ch, 448 kbps
Субтитры: Английские
Скачать: сэмпл

Скриншоты

Общее
Уникальный идентификатор : 170337730560971103537709278240989771357 (0x8025DA852D8CA8E98C06BB95BF3FF65D)
Полное имя : Koo.Kin-Dza-Dza.2013.BDRip.1080p.Rus.mkv
Формат : Matroska
Версия формата : Version 2
Размер файла : 2,19 Гбайт
Продолжительность : 1 ч. 36 м.
Общий поток : 3246 Кбит/сек
Название фильма : Ку! Кин-дза-дза (2013)
Дата кодирования : UTC 2013-05-15 12:23:20
Программа кодирования : mkvmerge v5.8.0 ('No Sleep / Pillow') built on Sep 2 2012 15:37:04
Библиотека кодирования : libebml v1.2.3 + libmatroska v1.3.0

Видео
Идентификатор : 1
Формат : AVC
Формат/Информация : Advanced Video Codec
Профиль формата : High@L4.1
Параметр CABAC формата : Да
Параметр ReFrames формата : 4 кадра
Идентификатор кодека : V_MPEG4/ISO/AVC
Продолжительность : 1 ч. 36 м.
Битрейт : 2797 Кбит/сек
Ширина : 1920 пикселей
Высота : 1080 пикселей
Соотношение сторон : 16:9
Частота кадров : 23,976 кадра/сек
Цветовое пространство : YUV
Субдискретизация насыщенности : 4:2:0
Битовая глубина : 8 бит
Тип развёртки : Прогрессивная
Бит/(Пиксели*Кадры) : 0.056
Размер потока : 1,84 Гбайт (84%)
Заголовок : Release by AlexKa
Библиотека кодирования : x264 core 132 r2310 76a5c3a
Настройки программы : cabac=1 / ref=4 / deblock=1:0:0 / analyse=0x3:0x133 / me=umh / subme=11 / psy=1 / psy_rd=1.00:0.00 / mixed_ref=1 / me_range=32 / chroma_me=1 / trellis=2 / 8x8dct=1 / cqm=0 / deadzone=21,11 / fast_pskip=0 / chroma_qp_offset=-2 / threads=12 / lookahead_threads=1 / sliced_threads=0 / nr=0 / decimate=0 / interlaced=0 / bluray_compat=0 / constrained_intra=0 / bframes=5 / b_pyramid=2 / b_adapt=2 / b_bias=0 / direct=3 / weightb=1 / open_gop=0 / weightp=2 / keyint=240 / keyint_min=23 / scenecut=40 / intra_refresh=0 / rc_lookahead=80 / rc=2pass / mbtree=1 / bitrate=2797 / ratetol=1.0 / qcomp=0.60 / qpmin=0 / qpmax=69 / qpstep=4 / cplxblur=20.0 / qblur=0.5 / ip_ratio=1.40 / aq=1:1.00
Язык : Russian

Аудио
Идентификатор : 2
Формат : AC-3
Формат/Информация : Audio Coding 3
Расширение режима : CM (complete main)
Идентификатор кодека : A_AC3
Продолжительность : 1 ч. 36 м.
Вид битрейта : Постоянный
Битрейт : 448 Кбит/сек
Каналы : 6 каналов
Расположение каналов : Front: L C R, Side: L R, LFE
Частота : 48,0 КГц
Битовая глубина : 16 бит
Метод сжатия : С потерями
Размер потока : 309 Мбайт (14%)
Заголовок : Rus
Язык : Russian

Текст
Идентификатор : 3
Формат : UTF-8
Идентификатор кодека : S_TEXT/UTF8
Идентификатор кодека/Информация : UTF-8 Plain Text
Заголовок : Eng
Язык : English

Меню
00:00:00.000 : :Chapter 01
00:06:27.678 : :Chapter 02
00:11:31.273 : :Chapter 03
00:15:58.540 : :Chapter 04
00:20:26.016 : :Chapter 05
00:27:15.091 : :Chapter 06
00:32:28.655 : :Chapter 07
00:39:43.672 : :Chapter 08
00:48:43.879 : :Chapter 09
00:56:26.132 : :Chapter 10
01:00:42.639 : :Chapter 11
01:07:32.423 : :Chapter 12
01:15:52.381 : :Chapter 13
01:21:46.276 : :Chapter 14
01:27:33.998 : :Chapter 15
01:33:13.754 : :Chapter 16
01:36:27.072 : :Chapter 17
x264 [info]: frame I:1317 Avg QP:13.54 size:190564
x264 [info]: frame P:30415 Avg QP:17.93 size: 35096
x264 [info]: frame B:107021 Avg QP:20.52 size: 6585



   Похожие торренты   Торрент   Размер 
В этой теме нет новых непрочитанных сообщений. Полицейская история 2013 / Police Story 2013 / Jing Cha Gu Shi 2013 (2013) BDRip 1080p от CINEMANIA| L2

330 | 144

8.54 ГБ

В этой теме нет новых непрочитанных сообщений. Игра престолов / Game of Thrones [S01-03] (2011-2013) BDRip 1080p, HDTVRip-AVC 1080p

35 | 23

65.81 ГБ

В этой теме нет новых непрочитанных сообщений. Mylene Farmer - Timeless 2013 Le Film (2013) BDRip 1080p от ExKinoRay

99 | 31

11.68 ГБ

В этой теме нет новых непрочитанных сообщений. Конец света 2013: Апокалипсис по-голливудски / This Is the End (2013) BDRip 1080p от Killbrain and Scarabey | Лицензия

179 | 8

5.95 ГБ

В этой теме нет новых непрочитанных сообщений. Она / Her (2013) BDRip 1080p

40 | 9

21.19 ГБ

В этой теме нет новых непрочитанных сообщений. Ку! Кин-дза-дза / - (2013) BDRip 1080p

75 | 10

4.39 ГБ

В этой теме нет новых непрочитанных сообщений. Джо / Joe (2013) BDRip 1080p | P, P2

131 | 100

17.25 ГБ




Вы не можете начинать темы
Вы не можете отвечать на сообщения
Вы не можете редактировать свои сообщения
Вы не можете удалять свои сообщения
Вы не можете добавлять вложения

Перейти:  
Для Мосгорсуда, Роскомнадзора и рекламодателей: mosgorsud-torrent[собачка]yandex.ru
 Вход
ppkBB3cker v.2 © 2008-2014 @ PPK
[ Time : 0.096s | 15 Queries | GZIP : Off ]

cron