img image001 image001 image001 image001 image001 image001 image001 image001 image001 image001 image001 image001 image001 image001 image001

Planets Sun Sun Sun
Статистика раздачи
Автор: Снежана | Размер: 10.75 ГБ | Добавлен: 27 июл 2013
Раздают: 6    Качают: 3
Скачать торрент
Скачать торрент
Описание торрента

СообщениеДобавлено: 27 июл 2013 

#77


Год выпуска: 2011
Страна: Италия
Киностудия: Mondo TV
Жанр: мультфильм
Продолжительность: ~ 00:13:30 / серия
Перевод: Профессиональный (многоголосый, закадровый)
Субтитры: нет


Режиссер: Орландо Корради / Orlando Corradi


Описание: Земля захвачена чудовищными вирусами, которые уничтожают все вокруг. К счастью, у пяти подростков обнаружили состав крови с необычной ДНК, дающей невероятные возможности: благодаря формуле, созданной гениальным ученым, они могут превращаться в Антивирус и бороться за спасение Земли.



Исходник: 4xDVD9 R5
Качество: DVDRip
Формат: AVI
Видео: 720x400 (16:9), 25 fps, XviD ~ 1993 kbps avg, 0.277 bit/pixel
Аудио: Русский AC3 2.0, 192 Kbps, 48 khz
Раздача от:
Вирус атакует
01. День возмездия
02. Первый антивирус
03. Мощь Диамера
04. Халерия
05. Открытие
06. Земля под защитой
07. Эксперимент
08. Аргес и Голдор
09. Корабль-призрак
10. Ловушки и интриги
11. Зоброн
12. Шутки природы
13. Звезды пустыни

Вирус атакует: Холодная месть
14. Первый Криптус
15. Катастрофические последствия
16. Трудности сожительства
17. Снова в путешествие
18. Астра становится жертвой
19. Рэкс
20. Тысячелетняя секвойя
21. Холодная месть
22. Тайны Амальди
23. Ниос 1
24. Опасные связи
25. Удар по сердцу (часть 1)
26. Удар по сердцу (часть 2)

Вирус атакует: Тайный сговор
27. Удар по сердцу (часть 3)
28. Удар по сердцу (часть 4)
29. Золушка для генералов
30. Триумф и поражение (часть 1)
31. Триумф и поражение (часть 2)
32. Триумф и поражение (часть 3)
33. Триумф и поражение (часть 4)
34. Сила тату
35. Самые тяжелые времена
36. Генерал Астор
37. Опыт обратной трансформации (часть 1)
38. Опыт обратной трансформации (часть 2)
39. Тайный сговорор

Вирус атакует: Двойная игра
40. Двойная игра
41. К Валбареl (Часть 1)
42. К Валбареl (Часть 2)
43. Магический татем
43. Храм Раджана (Часть 1)
45. Храм Раджана (Часть 2)
46. Болото
47. Лодка капитана Шанкара
48. Аральдо
49. Неожиданное возвращение
50. В логове вирусов
51. Финальная битва (Часть 1)
52. Финальная битва (Часть 2)

Общее
Полное имя : Virus.atakuet.s01.2011..DVDRip_[Youtracker]_by_avproh�1.avi
Формат : AVI
Формат/Информация : Audio Video Interleave
Размер файла : 210 Мбайт
Продолжительность : 13 м.
Общий поток : 2195 Кбит/сек
Программа кодирования : VirtualDubModRus 1.5.10.2 (build 2542/release)
Библиотека кодирования : VirtualDubMod build 2542/release

Видео
Идентификатор : 0
Формат : MPEG-4 Visual
Профиль формата : Advanced Simple@L5
Параметр BVOP формата : 1
Параметр QPel формата : Нет
Параметр GMC формата : Без точки перехода
Параметр матрицы формата : Выборочная
Идентификатор кодека : XVID
Идентификатор кодека/Подсказка : XviD
Продолжительность : 13 м.
Битрейт : 1993 Кбит/сек
Ширина : 720 пикселей
Высота : 400 пикселей
Соотношение сторон : 16:9
Частота кадров : 25,000 кадров/сек
Цветовое пространство : YUV
Субдискретизация насыщенности : 4:2:0
Битовая глубина : 8 бит
Тип развёртки : Прогрессивная
Метод сжатия : С потерями
Бит/(Пиксели*Кадры) : 0.277
Размер потока : 190 Мбайт (91%)
Библиотека кодирования : XviD 65

Аудио
Идентификатор : 1
Формат : AC-3
Формат/Информация : Audio Coding 3
Расширение режима : CM (complete main)
Параметр Endianness формата : Big
Идентификатор кодека : 2000
Продолжительность : 13 м.
Вид битрейта : Постоянный
Битрейт : 192 Кбит/сек
Каналы : 2 канала
Расположение каналов : Front: L R
Частота : 48,0 КГц
Битовая глубина : 16 бит
Метод сжатия : С потерями
Размер потока : 18,3 Мбайт (9%)
Выравнивание : Разделение по промежуткам
Продолжительность промежутка : 40 мс. (1,00 видеокадр)
Время предзагрузки промежутка : 500 мс.






   Похожие торренты   Торрент   Размер 
В этой теме нет новых непрочитанных сообщений. Вирус атакует / Virus Attack [01x01-52 из 52] (2011) DVDRip-AVC от Youtracker | P

0 | 2

10.78 ГБ

В этой теме нет новых непрочитанных сообщений. Вирус атакует! / Virus Attack [01x01-52 из 52] (2011) 4xDVD9 от Youtracker | P | Лицензия

0 | 2

29.7 ГБ

В этой теме нет новых непрочитанных сообщений. Вирус / Virus (2006) DVDRip | L1

64 | 10

430.01 МБ

В этой теме нет новых непрочитанных сообщений. Вирус Х / Virus X (2010) DVDRip

57 | 5

1.37 ГБ

В этой теме нет новых непрочитанных сообщений. Вирус Х / Virus X (2010) DVDRip

1 | 2

744.08 МБ

В этой теме нет новых непрочитанных сообщений. Вирус / Virus (1996) DVDRip | A

26 | 8

1.36 ГБ

В этой теме нет новых непрочитанных сообщений. Вирус / Virus (1996) DVDRip

0 | 2

494.34 МБ




Вы не можете начинать темы
Вы не можете отвечать на сообщения
Вы не можете редактировать свои сообщения
Вы не можете удалять свои сообщения
Вы не можете добавлять вложения

Перейти:  
Для Мосгорсуда, Роскомнадзора и рекламодателей: mosgorsud-torrent[собачка]yandex.ru
 Вход
ppkBB3cker v.2 © 2008-2014 @ PPK
[ Time : 0.025s | 14 Queries | GZIP : Off ]

Торрент трекер RUTOR.IN, Не можете зайти на rutor.org? Какой новый адрес рутор? Какое зеркало рутор? Не работает rutor.org и зеркала? Тогда наш торрент специально для вас. Rutor.in неофициальное зеркало rutor. В случае если у Вас заблокирован rutor или вдруг Вы не можете на него зайти, то Вы без труда сможете скачать бесплатно и без рекламы последние новинки кино, игр, сериалов и прочего у нас, на Rutor.in. Не нужно использовать прокси, чтобы зайти на рутор, достаточно воспользоваться нашим ресурсом. Все новые фильмы, игры, сериалы, книги и музыка за 2013 и 2014 годы через торрент бесплатно. Скачивайте фильмы в хорошем качестве, игры для пк, xbox, playstation без регистрации. У нас вы найдете новые Зарубежные сериалы и Русские сериалы 2013, 2014, 2015 годов. Оставайтесь с нами, качайте любимые фильмы, игры, сериалы, книги и музыку.