img image001 image001 image001 image001 image001 image001 image001 image001 image001 image001 image001 image001 image001 image001 image001

Planets Sun Sun Sun
Статистика раздачи
Автор: Снежана | Размер: 5.82 ГБ | Добавлен: 27 июл 2013
Раздают: 3    Качают: 4
Скачать торрент
Скачать торрент
Описание торрента

СообщениеДобавлено: 27 июл 2013 

Ку! Кин-дза-дза в 3Д / Ku! Kin-dza-dza 3D[/size]


#77

Страна: Россия
Студия: Кинокомпания CTB, Первый канал
Жанр: мультфильм, фантастика, комедия
Год выпуска: 2013
Продолжительность: 01:36:27

Оригинальная аудиодорожка: русская [лицензия, BD3D RUS]
Русские субтитры: нет
Режиссер: Георгий Данелия, Татьяна Ильина / Georgiy Daneliya, Tatiana Ilyina
Роли озвучивали: Николай Губенко, Иван Цехмистренко, Андрей Леонов, Алексей Колган, Александр Адабашьян, Георгий Данелия, Игорь Кваша, Вахтанг Кикабидзе, Галина Данелия-Юркова, Полина Кутепова, Евгений Стеблов, Алла Санникова, Игорь Санников, Маргарита Рассказова, Виктория Радунская, Ирина Девляшова


Начинающий диджей Толик и всемирно известный виолончелист Владимир Чижов встречают на шумной московской улице босого человека. Нажав на кнопку странной машинки, герои перемещаются на пустынную планету Плюк. Анимационный ремейк любимого всеми фильма «Кин-дза-дза!» не менее увлекательно и смешно, чем оригинал, рассказывает о приключениях Толика и дяди Вовы. В этом мире песка жители делятся на две категории — пацаков и чатлан, простая спичка обладает невероятной ценностью, а людей встречают и провожают по цвету штанов.

Качество: BDRip 1080p
Контейнер: MKV
Формат 3D: Half OverUnder / Вертикальная анаморфная стереопара
Порядок ракурсов: левый ракурс первый
Поддержка автоматического запуска 3D на вашем TV (frame paking): да
Видео кодек: x264
Аудио кодек: AC3
Видео: AVC / High@L4.1 / 23,976 fps / 1920x1080p / 8,0 Mbps / 0.161
Аудио: AC3 / 5.1 ch / 640 kbps / Русский оригинал, BD3D RUS
Субтитры: (softsub, SRT)
Английские: Full, BD3D RUS
Дополнительно: Сохранены оригинальные чаптеры как на Blu-ray
Рип (видеоряд) от: Killbrain


Раздача от:












x264 [info]: frame I:1302 Avg QP:11.99 size:309445
x264 [info]: frame P:31977 Avg QP:13.79 size: 96365
x264 [info]: frame B:105473 Avg QP:15.17 size: 21802

Общее
Уникальный идентификатор : 197382265047368623531083668902533050418 (0x947E71047A3A712D9961C417B206B032)
Полное имя : F:Скачка торрент Ku.Kin.dza.dza.3D.2013.BDRip1080p.halfOU(Killbrain).mkv
Формат : Matroska
Версия формата : Version 4 / Version 2
Размер файла : 5,82 Гбайт
Продолжительность : 1 ч. 36 м.
Общий поток : 8637 Кбит/сек
Название фильма : Ku! Kin-dza-dza 3D (2013) by Killbrain
Дата кодирования : UTC 2013-05-15 19:06:44
Программа кодирования : mkvmerge v6.2.0 ('Promised Land') built on Apr 28 2013 12:22:01
Библиотека кодирования : libebml v1.3.0 + libmatroska v1.4.0

Видео
Идентификатор : 1
Формат : AVC
Формат/Информация : Advanced Video Codec
Профиль формата : High@L4.1
Параметр CABAC формата : Да
Параметр ReFrames формата : 4 кадра
Идентификатор кодека : V_MPEG4/ISO/AVC
Продолжительность : 1 ч. 36 м.
Битрейт : 8000 Кбит/сек
Ширина : 1920 пикселей
Высота : 1080 пикселей
Соотношение сторон : 16:9
Режим частоты кадров : Постоянный
Частота кадров : 23,976 кадра/сек
Цветовое пространство : YUV
Субдискретизация насыщенности : 4:2:0
Битовая глубина : 8 бит
Тип развёртки : Прогрессивная
Бит/(Пиксели*Кадры) : 0.161
Размер потока : 5,27 Гбайт (91%)
Заголовок : Ku! Kin-dza-dza 3D (2013)
Библиотека кодирования : x264 core 132 r2310 76a5c3a
Настройки программы : cabac=1 / ref=4 / deblock=1:-1:-1 / analyse=0x3:0x113 / me=umh / subme=9 / psy=1 / psy_rd=1.00:0.40 / mixed_ref=1 / me_range=16 / chroma_me=1 / trellis=2 / 8x8dct=1 / cqm=0 / deadzone=21,11 / fast_pskip=0 / chroma_qp_offset=-4 / threads=3 / lookahead_threads=1 / sliced_threads=0 / nr=0 / decimate=0 / interlaced=0 / bluray_compat=0 / constrained_intra=0 / bframes=6 / b_pyramid=2 / b_adapt=2 / b_bias=0 / direct=3 / weightb=1 / open_gop=0 / weightp=2 / keyint=240 / keyint_min=24 / scenecut=40 / intra_refresh=0 / rc_lookahead=60 / rc=2pass / mbtree=0 / bitrate=8000 / ratetol=1.0 / qcomp=0.65 / qpmin=0 / qpmax=69 / qpstep=4 / cplxblur=20.0 / qblur=0.5 / vbv_maxrate=40000 / vbv_bufsize=30000 / nal_hrd=none / frame-packing=4 / ip_ratio=1.40 / pb_ratio=1.30 / aq=1:0.70
Язык : Russian
Default : Да
Forced : Нет

Аудио
Идентификатор : 2
Формат : AC-3
Формат/Информация : Audio Coding 3
Расширение режима : CM (complete main)
Параметр Endianness формата : Big
Идентификатор кодека : A_AC3
Продолжительность : 1 ч. 36 м.
Вид битрейта : Постоянный
Битрейт : 640 Кбит/сек
Каналы : 6 каналов
Расположение каналов : Front: L C R, Side: L R, LFE
Частота : 48,0 КГц
Битовая глубина : 16 бит
Метод сжатия : С потерями
Размер потока : 442 Мбайт (7%)
Заголовок : AC3 / 5.1 ch / 640 kbps / Русский оригинал, BD3D RUS
Язык : Russian
Default : Да
Forced : Нет

Текст
Идентификатор : 3
Формат : UTF-8
Идентификатор кодека : S_TEXT/UTF8
Идентификатор кодека/Информация : UTF-8 Plain Text
Заголовок : Full, BD3D RUS
Язык : English
Default : Нет
Forced : Нет

Меню
00:00:00.000 : :Chapter 01
00:06:27.678 : :Chapter 02
00:11:31.273 : :Chapter 03
00:15:58.540 : :Chapter 04
00:20:26.016 : :Chapter 05
00:27:15.091 : :Chapter 06
00:32:28.655 : :Chapter 07
00:39:43.672 : :Chapter 08
00:48:43.879 : :Chapter 09
00:56:26.132 : :Chapter 10
01:00:42.639 : :Chapter 11
01:07:32.423 : :Chapter 12
01:15:52.381 : :Chapter 13
01:21:46.276 : :Chapter 14
01:27:33.998 : :Chapter 15
01:33:13.754 : :Chapter 16








   Похожие торренты   Торрент   Размер 
В этой теме нет новых непрочитанных сообщений. Возвращение Буратино (2013) BDRip 1080p от Youtracker | 3D-Video

5 | 3

4.89 ГБ

В этой теме нет новых непрочитанных сообщений. G.I. Joe: Бросок кобры 2 / G.I. Joe: Retaliation (2013) BDRip 1080p от Youtracker | 3D-Video | Лицензия | Theatrical Cut

84 | 14

9.06 ГБ

В этой теме нет новых непрочитанных сообщений. Оз: Великий и Ужасный / Oz the Great and Powerful (2013) BDRip 1080p от Youtracker | 3D-Video | Лицензия

28 | 5

9.05 ГБ

В этой теме нет новых непрочитанных сообщений. Побег с планеты Земля / Escape from Planet Earth (2013) BDRip 1080p от Youtracker | 3D-Video | Лицензия

15 | 7

6.32 ГБ

В этой теме нет новых непрочитанных сообщений. Джек – покоритель великанов / Jack the Giant Slayer (2013) BDRip 1080p от Youtracker | 3D-Video | Лицензия

236 | 65

9.92 ГБ

В этой теме нет новых непрочитанных сообщений. Охотники на ведьм / Hansel & Gretel: Witch Hunters (2013) BDRip 1080p от Youtracker | Лицензия | Theatrical Cut | 3D-Video

47 | 4

7.85 ГБ

В этой теме нет новых непрочитанных сообщений. Возвращение Буратино (2013) Blu-ray 1080p от Youtracker и HDCLUB | 3D-Video | лицензия

1 | 5

23.08 ГБ




Вы не можете начинать темы
Вы не можете отвечать на сообщения
Вы не можете редактировать свои сообщения
Вы не можете удалять свои сообщения
Вы не можете добавлять вложения

Перейти:  
Для Мосгорсуда, Роскомнадзора и рекламодателей: mosgorsud-torrent[собачка]yandex.ru
 Вход
ppkBB3cker v.2 © 2008-2014 @ PPK
[ Time : 0.072s | 15 Queries | GZIP : Off ]

Торрент трекер RUTOR.IN, Не можете зайти на rutor.org? Какой новый адрес рутор? Какое зеркало рутор? Не работает rutor.org и зеркала? Тогда наш торрент специально для вас. Rutor.in неофициальное зеркало rutor. В случае если у Вас заблокирован rutor или вдруг Вы не можете на него зайти, то Вы без труда сможете скачать бесплатно и без рекламы последние новинки кино, игр, сериалов и прочего у нас, на Rutor.in. Не нужно использовать прокси, чтобы зайти на рутор, достаточно воспользоваться нашим ресурсом. Все новые фильмы, игры, сериалы, книги и музыка за 2013 и 2014 годы через торрент бесплатно. Скачивайте фильмы в хорошем качестве, игры для пк, xbox, playstation без регистрации. У нас вы найдете новые Зарубежные сериалы и Русские сериалы 2013, 2014, 2015 годов. Оставайтесь с нами, качайте любимые фильмы, игры, сериалы, книги и музыку.