img image001 image001 image001 image001 image001 image001 image001 image001 image001 image001 image001 image001 image001 image001 image001

Planets Sun Sun Sun
Статистика раздачи
Автор: Снежана | Размер: 10.78 ГБ | Добавлен: 27 июл 2013
Раздают: 0    Качают: 2
Скачать торрент
Скачать торрент
Описание торрента

СообщениеДобавлено: 27 июл 2013 

#77


Год выпуска: 2011
Страна: Италия
Киностудия: Mondo TV
Жанр: мультфильм
Продолжительность: ~ 00:13:30 / серия
Перевод: Профессиональный (многоголосый, закадровый)
Субтитры: нет


Режиссер: Орландо Корради / Orlando Corradi


Описание: Земля захвачена чудовищными вирусами, которые уничтожают все вокруг. К счастью, у пяти подростков обнаружили состав крови с необычной ДНК, дающей невероятные возможности: благодаря формуле, созданной гениальным ученым, они могут превращаться в Антивирус и бороться за спасение Земли.



Исходник: 4xDVD9 R5
Качество: DVDRip-AVC
Формат: MKV
Видео: 720x572@1024x572 (16:9), 25 fps, H264 ~ 2000 kbps avg, 0.194 bit/pixel
Аудио: Русский AC3 2.0, 192 Kbps, 48 khz
Раздача от:
Вирус атакует
01. День возмездия
02. Первый антивирус
03. Мощь Диамера
04. Халерия
05. Открытие
06. Земля под защитой
07. Эксперимент
08. Аргес и Голдор
09. Корабль-призрак
10. Ловушки и интриги
11. Зоброн
12. Шутки природы
13. Звезды пустыни

Вирус атакует: Холодная месть
14. Первый Криптус
15. Катастрофические последствия
16. Трудности сожительства
17. Снова в путешествие
18. Астра становится жертвой
19. Рэкс
20. Тысячелетняя секвойя
21. Холодная месть
22. Тайны Амальди
23. Ниос 1
24. Опасные связи
25. Удар по сердцу (часть 1)
26. Удар по сердцу (часть 2)

Вирус атакует: Тайный сговор
27. Удар по сердцу (часть 3)
28. Удар по сердцу (часть 4)
29. Золушка для генералов
30. Триумф и поражение (часть 1)
31. Триумф и поражение (часть 2)
32. Триумф и поражение (часть 3)
33. Триумф и поражение (часть 4)
34. Сила тату
35. Самые тяжелые времена
36. Генерал Астор
37. Опыт обратной трансформации (часть 1)
38. Опыт обратной трансформации (часть 2)
39. Тайный сговорор

Вирус атакует: Двойная игра
40. Двойная игра
41. К Валбареl (Часть 1)
42. К Валбареl (Часть 2)
43. Магический татем
43. Храм Раджана (Часть 1)
45. Храм Раджана (Часть 2)
46. Болото
47. Лодка капитана Шанкара
48. Аральдо
49. Неожиданное возвращение
50. В логове вирусов
51. Финальная битва (Часть 1)
52. Финальная битва (Часть 2)

Общее
Полное имя : Virus.atakuet.s01.2011..DVDRip-AVC_[Youtracker]_by_avproh\01.mkv
Формат : Matroska
Версия формата : Version 4 / Version 2
Размер файла : 210 Мбайт
Продолжительность : 13 м.
Общий поток : 2196 Кбит/сек
Дата кодирования : UTC 2013-05-15 22:04:39
Программа кодирования : mkvmerge v6.1.0 ('Old Devil') built on Mar 2 2013 14:32:37
Библиотека кодирования : libebml v1.3.0 + libmatroska v1.4.0

Видео
Идентификатор : 1
Формат : AVC
Формат/Информация : Advanced Video Codec
Профиль формата : High@L4.1
Параметр CABAC формата : Да
Параметр ReFrames формата : 11 кадров
Идентификатор кодека : V_MPEG4/ISO/AVC
Продолжительность : 13 м.
Битрейт : 2000 Кбит/сек
Ширина : 720 пикселей
Высота : 572 пикселя
Соотношение сторон : 16:9
Соотношение сторон в оригинале : 16:9
Режим частоты кадров : Постоянный
Частота кадров : 25,000 кадров/сек
Цветовое пространство : YUV
Субдискретизация насыщенности : 4:2:0
Битовая глубина : 8 бит
Тип развёртки : Прогрессивная
Бит/(Пиксели*Кадры) : 0.194
Размер потока : 187 Мбайт (89%)
Библиотека кодирования : x264 core 130 r2273 b3065e6
Настройки программы : cabac=1 / ref=11 / deblock=1:-2:-1 / analyse=0x3:0x113 / me=umh / subme=9 / psy=1 / psy_rd=1.00:0.20 / mixed_ref=1 / me_range=32 / chroma_me=1 / trellis=1 / 8x8dct=1 / cqm=0 / deadzone=21,11 / fast_pskip=0 / chroma_qp_offset=-3 / threads=9 / lookahead_threads=1 / sliced_threads=0 / nr=0 / decimate=0 / interlaced=0 / bluray_compat=0 / constrained_intra=0 / bframes=8 / b_pyramid=2 / b_adapt=2 / b_bias=0 / direct=3 / weightb=1 / open_gop=0 / weightp=2 / keyint=250 / keyint_min=25 / scenecut=40 / intra_refresh=0 / rc_lookahead=60 / rc=2pass / mbtree=1 / bitrate=2000 / ratetol=1.0 / qcomp=0.60 / qpmin=0 / qpmax=69 / qpstep=4 / cplxblur=20.0 / qblur=0.5 / ip_ratio=1.40 / aq=1:1.00
Язык : English
Default : Да
Forced : Нет

Аудио
Идентификатор : 2
Формат : AC-3
Формат/Информация : Audio Coding 3
Расширение режима : CM (complete main)
Параметр Endianness формата : Big
Идентификатор кодека : A_AC3
Продолжительность : 13 м.
Вид битрейта : Постоянный
Битрейт : 192 Кбит/сек
Каналы : 2 канала
Расположение каналов : Front: L R
Частота : 48,0 КГц
Битовая глубина : 16 бит
Метод сжатия : С потерями
Размер потока : 18,3 Мбайт (9%)
Язык : Russian
Default : Да
Forced : Нет





   Похожие торренты   Торрент   Размер 
В этой теме нет новых непрочитанных сообщений. Вирус атакует / Virus Attack [01x01-52 из 52] (2011) DVDRip от Youtracker | P

6 | 3

10.75 ГБ

В этой теме нет новых непрочитанных сообщений. Вирус атакует! / Virus Attack [01x01-52 из 52] (2011) 4xDVD9 от Youtracker | P | Лицензия

0 | 2

29.7 ГБ

В этой теме нет новых непрочитанных сообщений. Вирус / Virus (1996) DVDRip | A

26 | 8

1.36 ГБ

В этой теме нет новых непрочитанных сообщений. Вирус Х / Virus X (2010) DVDRip

57 | 5

1.37 ГБ

В этой теме нет новых непрочитанных сообщений. Вирус / Virus (1996) DVDRip

0 | 2

494.34 МБ

В этой теме нет новых непрочитанных сообщений. Вирус Х / Virus X (2010) DVDRip

0 | 2

1.46 ГБ

В этой теме нет новых непрочитанных сообщений. Вирус / Virus (2006) DVDRip | L1

64 | 10

430.01 МБ




Вы не можете начинать темы
Вы не можете отвечать на сообщения
Вы не можете редактировать свои сообщения
Вы не можете удалять свои сообщения
Вы не можете добавлять вложения

Перейти:  
Для Мосгорсуда, Роскомнадзора и рекламодателей: mosgorsud-torrent[собачка]yandex.ru
 Вход
ppkBB3cker v.2 © 2008-2014 @ PPK
[ Time : 0.063s | 15 Queries | GZIP : Off ]

Торрент трекер RUTOR.IN, Не можете зайти на rutor.org? Какой новый адрес рутор? Какое зеркало рутор? Не работает rutor.org и зеркала? Тогда наш торрент специально для вас. Rutor.in неофициальное зеркало rutor. В случае если у Вас заблокирован rutor или вдруг Вы не можете на него зайти, то Вы без труда сможете скачать бесплатно и без рекламы последние новинки кино, игр, сериалов и прочего у нас, на Rutor.in. Не нужно использовать прокси, чтобы зайти на рутор, достаточно воспользоваться нашим ресурсом. Все новые фильмы, игры, сериалы, книги и музыка за 2013 и 2014 годы через торрент бесплатно. Скачивайте фильмы в хорошем качестве, игры для пк, xbox, playstation без регистрации. У нас вы найдете новые Зарубежные сериалы и Русские сериалы 2013, 2014, 2015 годов. Оставайтесь с нами, качайте любимые фильмы, игры, сериалы, книги и музыку.
cron