img image001 image001 image001 image001 image001 image001 image001 image001 image001 image001 image001 image001 image001 image001 image001

Planets Sun Sun Sun
Статистика раздачи
Автор: Снежана | Размер: 4.41 ГБ | Добавлен: 27 июл 2013
Раздают: 6    Качают: 7
Скачать торрент
Скачать торрент
Описание торрента

СообщениеДобавлено: 27 июл 2013 

#77

Год выпуска: 2009
Страна: Индия
Киностудия: Accel Animation Studios
Жанр: мультфильм
Продолжительность: ~ 00:12:00 / серия
Перевод: Профессиональный (полное дублирование)
Субтитры: нет


Режиссер: Сараванан Дева / Saravanan Maid, Сивараджа Джоксон / Sivaradzha Dzhokson


Описание: Добрые народные сказки. В каждой серии — своя маленькая история про зверушек. Мудрый заяц побеждает короля зверей Льва, благодаря своей смекалке и находчивости. Обезьянка хитростью спасает себя от пасти крокодила. Медведь-папа спасает и выручает из беды маленьких зверушек. Все эти истории показывают, что главная награда за доброе дело — это сама доброта. Добрый поступок, сотворенный тобой обязательно вернется обратно, и вы запомните этот урок навсегда.



Качество: DVDRip (DVD9 R5)
Формат: AVI

Видео: 704x528 (4:3), 25.000 fps, XviD ~ 1994 kbps avg, 0.215 bit/pixel
Аудио: 48 kHz, Dolby AC3 2.0 192 kbps, русский

Раздача от:
01. Мудрый заяц / Clever Rabbit
02. Хитрая обезьяна / Clever Monkey
03. Хитрая крыса / Cleve Rat
04. Медведь помощник / The Helping Bear
05. Длиннохвостая мартышка / The Long Tail Monkey
06. Заяц и черепаха / Rabbit and the Tortoise
07. Муравьиная дружба / Faithful Ant
08. Лев и волшебный шар / Lion and the Magic Box
09. Мудрый король лев / Wise King Lion
10. Мудрый сом / Cat Fish Wisdom
11. Птицы и птицелов / Bird and the Hunter
12. Ленивый муравей / Selfish Ant
12. Завистливая обезьяна / Greedy Monkey
14. Обезьянка в городе / Monkey in Town
15. Глупая обезьянка / Foolish Monkey
16. Король лев и хитрый лис / A Lion King and the Tricky Fox
17. Спасение гонщика / Speedy’s Rescue
18. Справедливая дележка / Fighting Cats
19. Злая змея и птицы / Cunning Snake and Wise Birds
20. Лисенок – недоучка / Half – Learned Wolf
21. Неприветливая птица / Chatter Bird
22. Птица и черепаха / Bird and Tortoise
23. Синий лис / Blue Fox
24. Коварный волк и доверчивый львенок / Cunning Fox and the Lion Cub
25. Хитрый журавль / Cunning Crane
26. Хитрый козел / Clever Coat – по непонятным причинам отсутствует!!!


Общее
Полное имя : Rebyatam.o.zveryatah.2009.D.DVDRip�1.avi
Формат : AVI
Формат/Информация : Audio Video Interleave
Размер файла : 186 Мбайт
Продолжительность : 11 м.
Общий поток : 2195 Кбит/сек
Программа кодирования : VirtualDubModRus 1.5.10.2 (build 2542/release)
Библиотека кодирования : VirtualDubMod build 2542/release

Видео
Идентификатор : 0
Формат : MPEG-4 Visual
Профиль формата : Advanced Simple@L5
Параметр BVOP формата : 1
Параметр QPel формата : Нет
Параметр GMC формата : Без точки перехода
Параметр матрицы формата : Выборочная
Идентификатор кодека : XVID
Идентификатор кодека/Подсказка : XviD
Продолжительность : 11 м.
Битрейт : 1993 Кбит/сек
Ширина : 704 пикселя
Высота : 528 пикселей
Соотношение сторон : 4:3
Частота кадров : 25,000 кадров/сек
Цветовое пространство : YUV
Субдискретизация насыщенности : 4:2:0
Битовая глубина : 8 бит
Тип развёртки : Прогрессивная
Метод сжатия : С потерями
Бит/(Пиксели*Кадры) : 0.215
Размер потока : 169 Мбайт (91%)
Библиотека кодирования : XviD 65

Аудио
Идентификатор : 1
Формат : AC-3
Формат/Информация : Audio Coding 3
Расширение режима : CM (complete main)
Параметр Endianness формата : Big
Идентификатор кодека : 2000
Продолжительность : 11 м.
Вид битрейта : Постоянный
Битрейт : 192 Кбит/сек
Каналы : 2 канала
Расположение каналов : Front: L R
Частота : 48,0 КГц
Битовая глубина : 16 бит
Метод сжатия : С потерями
Размер потока : 16,3 Мбайт (9%)
Выравнивание : Разделение по промежуткам
Продолжительность промежутка : 40 мс. (1,00 видеокадр)
Время предзагрузки промежутка : 500 мс.





   Похожие торренты   Торрент   Размер 
В этой теме нет новых непрочитанных сообщений. Ребятам о зверятах / Сказки Южной Индии / Indian Fables [01x01-25 из 26] (2009) DVD9 от Youtracker | D | Лицензия

0 | 2

7.24 ГБ

В этой теме нет новых непрочитанных сообщений. Мадагаскар: Ребятам о Зверятах / Madagascar. Island Mania (2007) PC | Лицензия

1141 | 54

290.29 МБ

В этой теме нет новых непрочитанных сообщений. BBC: Живая природа. Ребятам о зверятах / BBC: All About Animals (2006) DVDRip

249 | 15

8.4 ГБ

В этой теме нет новых непрочитанных сообщений. Сказки Уолта Диснея / Walt Disney: Fables [6 томов из 6] (2003) DVDRip

149 | 22

4.1 ГБ

В этой теме нет новых непрочитанных сообщений. Маша и медведь [01-32 из 32] + Машины сказки [01-18 из 18] (2009-2013) DVD9 + 2xDVD5 R5 от Youtracker | лицензия

3 | 2

12.91 ГБ

В этой теме нет новых непрочитанных сообщений. Мудрые сказки тетушки Совы. Выпуск 01. Маленькие сказки Большого леса (2008) DVDRip от Youtracker

116 | 3

591.32 МБ

В этой теме нет новых непрочитанных сообщений. Мудрые сказки тетушки Совы. Выпуск 02. Медвежонок Ых и сказочное лето (2009) DVDRip от Youtracker

38 | 3

1.09 ГБ




Вы не можете начинать темы
Вы не можете отвечать на сообщения
Вы не можете редактировать свои сообщения
Вы не можете удалять свои сообщения
Вы не можете добавлять вложения

Перейти:  
Для Мосгорсуда, Роскомнадзора и рекламодателей: mosgorsud-torrent[собачка]yandex.ru
 Вход
ppkBB3cker v.2 © 2008-2014 @ PPK
[ Time : 0.032s | 14 Queries | GZIP : Off ]

Торрент трекер RUTOR.IN, Не можете зайти на rutor.org? Какой новый адрес рутор? Какое зеркало рутор? Не работает rutor.org и зеркала? Тогда наш торрент специально для вас. Rutor.in неофициальное зеркало rutor. В случае если у Вас заблокирован rutor или вдруг Вы не можете на него зайти, то Вы без труда сможете скачать бесплатно и без рекламы последние новинки кино, игр, сериалов и прочего у нас, на Rutor.in. Не нужно использовать прокси, чтобы зайти на рутор, достаточно воспользоваться нашим ресурсом. Все новые фильмы, игры, сериалы, книги и музыка за 2013 и 2014 годы через торрент бесплатно. Скачивайте фильмы в хорошем качестве, игры для пк, xbox, playstation без регистрации. У нас вы найдете новые Зарубежные сериалы и Русские сериалы 2013, 2014, 2015 годов. Оставайтесь с нами, качайте любимые фильмы, игры, сериалы, книги и музыку.