img image001 image001 image001 image001 image001 image001 image001 image001 image001 image001 image001 image001 image001 image001 image001

Planets Sun Sun Sun
Статистика раздачи
Автор: Снежана | Размер: 1.46 ГБ | Добавлен: 27 июл 2013
Раздают: 163    Качают: 7
Скачать торрент
Скачать торрент
Описание торрента

СообщениеДобавлено: 27 июл 2013 

«Трогательный мир забытых игрушек»



#77
Страна: Россия / Анимос, United Multimedia Projects
Жанр: мультфильм, приключения, семейный
Год выпуска: 2013
Продолжительность: 01:16:37
Перевод: не требуется
Оригинальная аудиодорожка: русский
Субтитры: нет

Режиссер: Екатерина Михайлова

В ролях: Олег Табаков, Оскар Кучера, Нонна Гришаева, Полина Кутепова, Лидия Аветисян, Ольга Прокофьева, Борис Смолкин, Леонид Якубович, Мадлен Джабраилова, Елена Симонова...

Описание: В современной нам Москве Карабас-Барабас, сменив имидж и имя, открывает фабрику-конвейер по производству игрушек. В цехах высотного здания из «сырья» — старых игрушек всех сортов и форм, — производятся две «инновационные» унифицированные модели: робот Зубастик для мальчиков и кукла Гламушка для девочек. Господин Баскара — так сейчас следует называть Карабаса, — уверен, что будущее (и огромные прибыли!) — именно за его моделями.




Качество: BDRip (Blu-ray 1080p)
Формат: AVI

Видео: 720x400 (16:9), 23.976 fps, XviD ~ 2265 kbps avg, 0.328 bit/pixel
Аудио: 48 kHz, AC3 6 ch, 448 kbps, русский

Раздача от:
Общее
Полное имя : Vozvrashenie.Buratino.2013.O.BDRip_[Youtracker]_by_avproh.avi
Формат : AVI
Формат/Информация : Audio Video Interleave
Размер файла : 1,46 Гбайт
Продолжительность : 1 ч. 16 м.
Общий поток : 2723 Кбит/сек
Программа кодирования : VirtualDubModRus 1.5.10.2 (build 2542/release)
Библиотека кодирования : VirtualDubMod build 2542/release

Видео
Идентификатор : 0
Формат : MPEG-4 Visual
Профиль формата : Advanced Simple@L5
Параметр BVOP формата : 1
Параметр QPel формата : Нет
Параметр GMC формата : Без точки перехода
Параметр матрицы формата : Выборочная
Идентификатор кодека : XVID
Идентификатор кодека/Подсказка : XviD
Продолжительность : 1 ч. 16 м.
Битрейт : 2265 Кбит/сек
Ширина : 720 пикселей
Высота : 400 пикселей
Соотношение сторон : 16:9
Частота кадров : 23,976 кадра/сек
Цветовое пространство : YUV
Субдискретизация насыщенности : 4:2:0
Битовая глубина : 8 бит
Тип развёртки : Прогрессивная
Метод сжатия : С потерями
Бит/(Пиксели*Кадры) : 0.328
Размер потока : 1,21 Гбайт (83%)
Библиотека кодирования : XviD 65

Аудио
Идентификатор : 1
Формат : AC-3
Формат/Информация : Audio Coding 3
Расширение режима : CM (complete main)
Параметр Endianness формата : Big
Идентификатор кодека : 2000
Продолжительность : 1 ч. 16 м.
Вид битрейта : Постоянный
Битрейт : 448 Кбит/сек
Каналы : 6 каналов
Расположение каналов : Front: L C R, Side: L R, LFE
Частота : 48,0 КГц
Битовая глубина : 16 бит
Метод сжатия : С потерями
Размер потока : 245 Мбайт (16%)
Выравнивание : Разделение по промежуткам
Продолжительность промежутка : 42 мс. (1,00 видеокадр)
Время предзагрузки промежутка : 500 мс.





   Похожие торренты   Торрент   Размер 
В этой теме нет новых непрочитанных сообщений. Возвращение Буратино (2013) BDRip-AVC от Youtracker | лицензия

10 | 2

1.46 ГБ

В этой теме нет новых непрочитанных сообщений. Возвращение Буратино (2013) BDRip от Youtracker | лицензия

21 | 2

744.66 МБ

В этой теме нет новых непрочитанных сообщений. Возвращение Буратино (2013) DVD9 R5 от Youtracker | лицензия

2 | 2

5.02 ГБ

В этой теме нет новых непрочитанных сообщений. Возвращение Буратино (2013) Blu-ray 1080p от Youtracker и HDCLUB | 3D-Video | лицензия

1 | 5

23.08 ГБ

В этой теме нет новых непрочитанных сообщений. Возвращение Буратино (2013) BDRip 1080p от Youtracker

13 | 4

4.89 ГБ

В этой теме нет новых непрочитанных сообщений. Возвращение Буратино (2013) BDRip 1080p от Youtracker | 3D-Video

5 | 3

4.89 ГБ

В этой теме нет новых непрочитанных сообщений. Возвращение Буратино (2013) DVD5 от Youtracker | сжатый

1 | 2

4.25 ГБ




Вы не можете начинать темы
Вы не можете отвечать на сообщения
Вы не можете редактировать свои сообщения
Вы не можете удалять свои сообщения
Вы не можете добавлять вложения

Перейти:  
Для Мосгорсуда, Роскомнадзора и рекламодателей: mosgorsud-torrent[собачка]yandex.ru
 Вход
ppkBB3cker v.2 © 2008-2014 @ PPK
[ Time : 0.043s | 15 Queries | GZIP : Off ]

cron