img image001 image001 image001 image001 image001 image001 image001 image001 image001 image001 image001 image001 image001 image001 image001

Planets Sun Sun Sun
Статистика раздачи
Автор: Снежана | Размер: 5.63 ГБ | Добавлен: 27 июл 2013
Раздают: 4    Качают: 3
Скачать торрент
Скачать торрент
Описание торрента

СообщениеДобавлено: 27 июл 2013 

Возвращение Буратино



#77
Год выпуска: 2013
Страна: Россия (Анимос, United Multimedia Projects)
Жанр: Мультфильм, Приключения, Семейный
Продолжительность: 01:16:37
Перевод: Не требуется

Режиссер: Екатерина Михайлова



Роли озвучивали:

...

Буратино - Оскар Кучера
Г-н Баскара - Олег Табаков
Мальвина - Нонна Гришаева
Пьеро - Полина Кутепова
Варя - Лидия Аветисян
Лиса Алиса - Ольга Прокофьева
Кот Базилио - Леонид Якубович
Маредур - Борис Смолкин
Кукла Света - Мадлен Джабраилова
Зайка - Елена Симонова
Медведь - Гоша Куценко
Матрена - Ольга Волкова



Описание: В современной нам Москве Карабас-Барабас, сменив имидж и имя, открывает фабрику-конвейер по производству игрушек. В цехах высотного здания из «сырья» — старых игрушек всех сортов и форм, — производятся две «инновационные» унифицированные модели: робот Зубастик для мальчиков и кукла Гламушка для девочек. Господин Баскара — так сейчас следует называть Карабаса, — уверен, что будущее (и огромные прибыли!) — именно за его моделями.



Премьера: 25 апреля 2013
Релиз на DVD и Blu-Ray: 27 мая 2013
Бюджет: $1 500 000



За исходный BD 3D спасибо .и avproh!



Качество: BDRip (by Ash61)
Контейнер: MKV
Формат 3D: Half OverUnder / Вертикальная анаморфная стереопара
Порядок ракурсов: левый ракурс первый
Видео кодек: x264
Аудио кодек: AC3



Видео: AVC / 23,976 fps / 1920х1080p / 9 664 Kbps
Аудио: Русский / AC3 / 48 KHz / 5.1 ch / 640 Kbps (Оригинал - BD 3D)
Субтитры: Отсутствуют

General
Unique ID : 221668911848238760981795346674064854076 (0xA6C3E1275BFD3B7ABFB977A158208C3C)
Complete name : G:DownloadsVozvraschenieBuratino(3D-halfOU)2013(Ash61).mkv
Format : Matroska
Format version : Version 2
File size : 5.63 GiB
Duration : 1h 16mn
Overall bit rate : 10.5 Mbps
Movie name : Возвращение Буратино (3D) 2013
Encoded date : UTC 2013-05-23 17:56:18
Writing application : mkvmerge v5.8.0 ('No Sleep / Pillow') built on Sep 2 2012 15:37:04
Writing library : libebml v1.2.3 + libmatroska v1.3.0

Video
ID : 1
Format : AVC
Format/Info : Advanced Video Codec
Format profile : High@L4.1
Format settings, CABAC : Yes
Format settings, ReFrames : 4 frames
Codec ID : V_MPEG4/ISO/AVC
Duration : 1h 16mn
Bit rate : 9 664 Kbps
Width : 1 920 pixels
Height : 1 080 pixels
Display aspect ratio : 16:9
Frame rate mode : Constant
Frame rate : 23.976 fps
Color space : YUV
Chroma subsampling : 4:2:0
Bit depth : 8 bits
Scan type : Progressive
Bits/(Pixel*Frame) : 0.194
Stream size : 5.17 GiB (92%)
Title : BDRip by Ash61
Writing library : x264 core 129 r2245 bc13772
Encoding settings : cabac=1 / ref=4 / deblock=1:-3:-3 / analyse=0x3:0x113 / me=umh / subme=9 / psy=1 / psy_rd=1.00:0.15 / mixed_ref=1 / me_range=32 / chroma_me=1 / trellis=2 / 8x8dct=1 / cqm=0 / deadzone=21,11 / fast_pskip=1 / chroma_qp_offset=-3 / threads=12 / lookahead_threads=2 / sliced_threads=0 / nr=0 / decimate=1 / interlaced=0 / bluray_compat=0 / constrained_intra=0 / bframes=7 / b_pyramid=2 / b_adapt=2 / b_bias=0 / direct=3 / weightb=1 / open_gop=0 / weightp=2 / keyint=250 / keyint_min=23 / scenecut=40 / intra_refresh=0 / rc_lookahead=60 / rc=crf / mbtree=1 / crf=17.0 / qcomp=0.70 / qpmin=0 / qpmax=69 / qpstep=4 / vbv_maxrate=40000 / vbv_bufsize=30000 / crf_max=0.0 / nal_hrd=none / frame-packing=4 / ip_ratio=1.40 / aq=1:0.70
Language : Russian
Default : Yes
Forced : No

Audio
ID : 2
Format : AC-3
Format/Info : Audio Coding 3
Mode extension : CM (complete main)
Format settings, Endianness : Big
Codec ID : A_AC3
Duration : 1h 16mn
Bit rate mode : Constant
Bit rate : 640 Kbps
Channel(s) : 6 channels
Channel positions : Front: L C R, Side: L R, LFE
Sampling rate : 48.0 KHz
Bit depth : 16 bits
Compression mode : Lossy
Stream size : 351 MiB (6%)
Title : Оригинал - BD 3D
Language : Russian
Default : Yes
Forced : No

Menu
00:00:00.000 : :1
00:04:10.417 : :2
00:11:21.764 : :3
00:19:11.275 : :4
00:26:15.199 : :5
00:32:20.021 : :6
00:39:59.731 : :7
00:47:29.764 : :8
00:54:50.871 : :9
01:02:52.143 : :10
01:08:43.119 : :11
01:13:06.716 : :12















   Похожие торренты   Торрент   Размер 
В этой теме нет новых непрочитанных сообщений. Возвращение Буратино (2013) BDRip 1080p от Youtracker | 3D-Video

5 | 3

4.89 ГБ

В этой теме нет новых непрочитанных сообщений. Возвращение Буратино (2013) Blu-ray 1080p от Youtracker и HDCLUB | 3D-Video | лицензия

1 | 5

23.08 ГБ

В этой теме нет новых непрочитанных сообщений. Возвращение Буратино (2013) BDRip 1080p

38 | 7

3.34 ГБ

В этой теме нет новых непрочитанных сообщений. Возвращение Буратино (2013) BDRip 1080p от Youtracker

13 | 4

4.89 ГБ

В этой теме нет новых непрочитанных сообщений. Возвращение Буратино (2013) BDRip 720p

76 | 10

2.19 ГБ

В этой теме нет новых непрочитанных сообщений. Возвращение Буратино (2013) BDRip от Youtracker | лицензия

163 | 7

1.46 ГБ

В этой теме нет новых непрочитанных сообщений. Возвращение Буратино (2013) BDRip-AVC от Youtracker | лицензия

10 | 2

1.46 ГБ




Вы не можете начинать темы
Вы не можете отвечать на сообщения
Вы не можете редактировать свои сообщения
Вы не можете удалять свои сообщения
Вы не можете добавлять вложения

Перейти:  
Для Мосгорсуда, Роскомнадзора и рекламодателей: mosgorsud-torrent[собачка]yandex.ru
 Вход
ppkBB3cker v.2 © 2008-2014 @ PPK
[ Time : 0.587s | 16 Queries | GZIP : Off ]

Торрент трекер RUTOR.IN, Не можете зайти на rutor.org? Какой новый адрес рутор? Какое зеркало рутор? Не работает rutor.org и зеркала? Тогда наш торрент специально для вас. Rutor.in неофициальное зеркало rutor. В случае если у Вас заблокирован rutor или вдруг Вы не можете на него зайти, то Вы без труда сможете скачать бесплатно и без рекламы последние новинки кино, игр, сериалов и прочего у нас, на Rutor.in. Не нужно использовать прокси, чтобы зайти на рутор, достаточно воспользоваться нашим ресурсом. Все новые фильмы, игры, сериалы, книги и музыка за 2013 и 2014 годы через торрент бесплатно. Скачивайте фильмы в хорошем качестве, игры для пк, xbox, playstation без регистрации. У нас вы найдете новые Зарубежные сериалы и Русские сериалы 2013, 2014, 2015 годов. Оставайтесь с нами, качайте любимые фильмы, игры, сериалы, книги и музыку.
cron