img image001 image001 image001 image001 image001 image001 image001 image001 image001 image001 image001 image001 image001 image001 image001

Planets Sun Sun Sun
Статистика раздачи
Автор: Снежана | Размер: 2.89 ГБ | Добавлен: 27 июл 2013
Раздают: 4    Качают: 3
Скачать торрент
Скачать торрент
Описание торрента

СообщениеДобавлено: 27 июл 2013 

#77


Информация о фильме
Название: Возвращение Буратино
Год выхода: 2-13
Жанр: Мультфильм, приключения, семейный
Режиссер: Екатерина Михайлова
В ролях: Олег Табаков, Оскар Кучера, Нонна Гришаева, Полина Кутепова, Лидия Аветисян, Ольга Прокофьева, Борис Смолкин, Леонид Якубович, Мадлен Джабраилова, Елена Симонова

О фильме:
В современной нам Москве Карабас-Барабас, сменив имидж и имя, открывает фабрику-конвейер по производству игрушек. В цехах высотного здания из «сырья» — старых игрушек всех сортов и форм, — производятся две «инновационные» унифицированные модели: робот Зубастик для мальчиков и кукла Гламушка для девочек. Господин Баскара — так сейчас следует называть Карабаса, — уверен, что будущее (и огромные прибыли!) — именно за его моделями.


Страна: Россия
Студия: Анимос, United Multimedia Projects
Продолжительность: 01:16:36
Перевод: Русский

Файл
Кодек: h.264
Качество: BDRip (720p)
Видео: 3255 Кбит/с, 1280x720, 23.976 кадр/с

Аудио: DTS, 6 ch, 1536 Кбит/с / AC3, 6 ch, 640 Кбит/с

Полное имя : Vozvraschenie.Buratino.2013.BDRip.(720p).0ptimus.mkv
Формат : Matroska
Версия формата : Version 4 / Version 2
Размер файла : 2,89 Гбайт
Продолжительность : 1 ч. 16 м.
Общий поток : 5406 Кбит/сек
Название фильма : Возвращение Буратино [2013] -=BDRip (720p) by 0ptimus=-
Дата кодирования : UTC 2013-05-24 05:58:34
Программа кодирования : mkvmerge v6.1.0 ('Old Devil') built on Mar 2 2013 14:32:37
Библиотека кодирования : libebml v1.3.0 + libmatroska v1.4.0

Видео
Идентификатор : 1
Формат : AVC
Формат/Информация : Advanced Video Codec
Профиль формата : High@L4.1
Параметр CABAC формата : Да
Параметр ReFrames формата : 9 кадров
Идентификатор кодека : V_MPEG4/ISO/AVC
Продолжительность : 1 ч. 16 м.
Битрейт : 3255 Кбит/сек
Ширина : 1280 пикселей
Высота : 720 пикселей
Соотношение сторон : 16:9
Частота кадров : 23,976 кадра/сек
Цветовое пространство : YUV
Субдискретизация насыщенности : 4:2:0
Битовая глубина : 8 бит
Тип развёртки : Прогрессивная
Бит/(Пиксели*Кадры) : 0.147
Размер потока : 1,68 Гбайт (58%)
Заголовок : Rip by 0ptimus
Библиотека кодирования : x264 core 130 r2273 b3065e6
Настройки программы : cabac=1 / ref=9 / deblock=1:-3:-3 / analyse=0x3:0x113 / me=umh / subme=9 / psy=1 / psy_rd=1.00:0.20 / mixed_ref=1 / me_range=32 / chroma_me=1 / trellis=2 / 8x8dct=1 / cqm=0 / deadzone=21,11 / fast_pskip=0 / chroma_qp_offset=-3 / threads=3 / lookahead_threads=1 / sliced_threads=0 / nr=0 / decimate=0 / interlaced=0 / bluray_compat=0 / constrained_intra=0 / bframes=8 / b_pyramid=2 / b_adapt=2 / b_bias=0 / direct=3 / weightb=1 / open_gop=0 / weightp=2 / keyint=240 / keyint_min=23 / scenecut=40 / intra_refresh=0 / rc_lookahead=40 / rc=2pass / mbtree=0 / bitrate=3255 / ratetol=1.0 / qcomp=0.60 / qpmin=0 / qpmax=69 / qpstep=4 / cplxblur=20.0 / qblur=0.5 / vbv_maxrate=50000 / vbv_bufsize=50000 / nal_hrd=none / ip_ratio=1.40 / pb_ratio=1.30 / aq=1:1.00
Язык : Russian

Аудио #1
Идентификатор : 2
Формат : DTS
Формат/Информация : Digital Theater Systems
Идентификатор кодека : A_DTS
Продолжительность : 1 ч. 16 м.
Вид битрейта : Постоянный
Битрейт : 1510 Кбит/сек
Каналы : 6 каналов
Расположение каналов : Front: L C R, Side: L R, LFE
Частота : 48,0 КГц
Битовая глубина : 16 бит
Метод сжатия : С потерями
Размер потока : 827 Мбайт (28%)
Заголовок : DTS 5.1 1536 kbps
Язык : Russian

Аудио #2
Идентификатор : 3
Формат : AC-3
Формат/Информация : Audio Coding 3
Расширение режима : CM (complete main)
Идентификатор кодека : A_AC3
Продолжительность : 1 ч. 16 м.
Вид битрейта : Постоянный
Битрейт : 640 Кбит/сек
Каналы : 6 каналов
Расположение каналов : Front: L C R, Side: L R, LFE
Частота : 48,0 КГц
Битовая глубина : 16 бит
Метод сжатия : С потерями
Размер потока : 351 Мбайт (12%)
Заголовок : AC3 5.1 640 kbps
Язык : Russian

Меню
00:00:00.000 : :Chapter 01
00:04:10.417 : :Chapter 02
00:11:21.764 : :Chapter 03
00:19:11.275 : :Chapter 04
00:26:15.199 : :Chapter 05
00:32:20.021 : :Chapter 06
00:39:59.731 : :Chapter 07
00:47:29.764 : :Chapter 08
00:54:50.871 : :Chapter 09
01:02:52.143 : :Chapter 10
01:08:43.119 : :Chapter 11
01:13:06.716 : :Chapter 12

------------------------------------------------
x264 [info]: frame I:1437 Avg QP:14.80 size:134028
x264 [info]: frame P:32256 Avg QP:17.06 size: 32081
x264 [info]: frame B:76522 Avg QP:18.50 size: 8394
------------------------------------------------



Релиз от:



   Похожие торренты   Торрент   Размер 
В этой теме нет новых непрочитанных сообщений. Возвращение Буратино (2013) BDRip 720p

76 | 10

2.19 ГБ

В этой теме нет новых непрочитанных сообщений. Возвращение Буратино (2013) BDRip 1080p

38 | 7

3.34 ГБ

В этой теме нет новых непрочитанных сообщений. Возвращение Буратино (2013) BDRip от Youtracker | лицензия

21 | 2

744.66 МБ

В этой теме нет новых непрочитанных сообщений. Возвращение Буратино (2013) BDRip 1080p от Youtracker

13 | 4

4.89 ГБ

В этой теме нет новых непрочитанных сообщений. Возвращение Буратино (2013) BDRip-AVC от potroks | Лицензия

37 | 4

1.46 ГБ

В этой теме нет новых непрочитанных сообщений. Возвращение Буратино (2013) BDRip 1080p | 3D-Video

4 | 3

5.63 ГБ

В этой теме нет новых непрочитанных сообщений. Возвращение Буратино (2013) BDRip-AVC от Youtracker | лицензия

10 | 2

1.46 ГБ




Вы не можете начинать темы
Вы не можете отвечать на сообщения
Вы не можете редактировать свои сообщения
Вы не можете удалять свои сообщения
Вы не можете добавлять вложения

Перейти:  
Для Мосгорсуда, Роскомнадзора и рекламодателей: mosgorsud-torrent[собачка]yandex.ru
 Вход
ppkBB3cker v.2 © 2008-2014 @ PPK
[ Time : 0.029s | 15 Queries | GZIP : On ]

Торрент трекер RUTOR.IN, Не можете зайти на rutor.org? Какой новый адрес рутор? Какое зеркало рутор? Не работает rutor.org и зеркала? Тогда наш торрент специально для вас. Rutor.in неофициальное зеркало rutor. В случае если у Вас заблокирован rutor или вдруг Вы не можете на него зайти, то Вы без труда сможете скачать бесплатно и без рекламы последние новинки кино, игр, сериалов и прочего у нас, на Rutor.in. Не нужно использовать прокси, чтобы зайти на рутор, достаточно воспользоваться нашим ресурсом. Все новые фильмы, игры, сериалы, книги и музыка за 2013 и 2014 годы через торрент бесплатно. Скачивайте фильмы в хорошем качестве, игры для пк, xbox, playstation без регистрации. У нас вы найдете новые Зарубежные сериалы и Русские сериалы 2013, 2014, 2015 годов. Оставайтесь с нами, качайте любимые фильмы, игры, сериалы, книги и музыку.