img image001 image001 image001 image001 image001 image001 image001 image001 image001 image001 image001 image001 image001 image001 image001

Planets Sun Sun Sun
Статистика раздачи
Автор: Снежана | Размер: 1.46 ГБ | Добавлен: 27 июл 2013
Раздают: 37    Качают: 4
Скачать торрент
Скачать торрент
Описание торрента

СообщениеДобавлено: 27 июл 2013 

#77

«Трогательный мир забытых игрушек»

#77

Год выпуска: 2013
Производство: Россия / Анимос, United Multimedia Projects
Жанр: Мультфильм, приключения, семейный
Продолжительность: 01:16:36
Перевод: Оригинал [лицензия]


Режиссер: Екатерина Михайлова

В ролях: Олег Табаков, Оскар Кучера, Нонна Гришаева, Полина Кутепова, Лидия Аветисян, Ольга Прокофьева, Борис Смолкин, Леонид Якубович, Мадлен Джабраилова, Елена Симонова, Гоша Куценко, Ольга Волкова

О фильме: В современной нам Москве Карабас-Барабас, сменив имидж и имя, открывает фабрику-конвейер по производству игрушек. В цехах высотного здания из «сырья» — старых игрушек всех сортов и форм, — производятся две «инновационные» унифицированные модели: робот Зубастик для мальчиков и кукла Гламушка для девочек. Господин Баскара — так сейчас следует называть Карабаса, — уверен, что будущее (и огромные прибыли!) — именно за его моделями.



Бюджет: $27 210 000





Качество: BDRip-AVC [Blu-Ray Remux]
Формат: MKV
Видео: H.264, 1036x584 (1.77:1); 23,976 fps; 2281 kbps; 0.157 bit/pixel
Аудио: 48 kHz, AC3 Dolby Digital, 3/2 (L,C,R,l,r) + LFE ch, 448.00 kbps


Автор рипа:


Общее
Уникальный идентификатор : 251020634810164916993872764094095193437 (0xBCD8D0D349BA13EF886975BA5CA6755D)
Полное имя : Vozvrasjenije.Buratino.2013.O.BDRip.x264.potroks.mkv
Формат : Matroska
Версия формата : Version 4 / Version 2
Размер файла : 1,46 Гбайт
Продолжительность : 1 ч. 16 м.
Общий поток : 2731 Кбит/сек
Название фильма : -=POTROKS=-
Дата кодирования : UTC 2013-05-24 18:20:51
Программа кодирования : mkvmerge v5.9.0 ('On The Loose') built on Dec 15 2012 16:39:58
Библиотека кодирования : libebml v1.3.0 + libmatroska v1.4.0

Видео
Идентификатор : 1
Формат : AVC
Формат/Информация : Advanced Video Codec
Профиль формата : High@L4.1
Параметр CABAC формата : Да
Параметр ReFrames формата : 13 кадров
Идентификатор кодека : V_MPEG4/ISO/AVC
Продолжительность : 1 ч. 16 м.
Битрейт : 2281 Кбит/сек
Ширина : 1036 пикселей
Высота : 584 пикселя
Соотношение сторон : 16:9
Режим частоты кадров : Постоянный
Частота кадров : 23,976 кадра/сек
Цветовое пространство : YUV
Субдискретизация насыщенности : 4:2:0
Битовая глубина : 8 бит
Тип развёртки : Прогрессивная
Бит/(Пиксели*Кадры) : 0.157
Размер потока : 1,19 Гбайт (82%)
Заголовок : Возвращение Буратино
Библиотека кодирования : x264 core 125 r2208 d9d2288
Настройки программы : cabac=1 / ref=13 / deblock=1:-1:-1 / analyse=0x3:0x133 / me=umh / subme=11 / psy=1 / psy_rd=1.02:0.00 / mixed_ref=1 / me_range=32 / chroma_me=1 / trellis=2 / 8x8dct=1 / cqm=0 / deadzone=21,11 / fast_pskip=0 / chroma_qp_offset=-2 / threads=9 / lookahead_threads=1 / sliced_threads=0 / nr=0 / decimate=1 / interlaced=0 / bluray_compat=0 / constrained_intra=0 / bframes=14 / b_pyramid=2 / b_adapt=2 / b_bias=0 / direct=3 / weightb=1 / open_gop=0 / weightp=2 / keyint=240 / keyint_min=23 / scenecut=40 / intra_refresh=0 / rc_lookahead=150 / rc=2pass / mbtree=1 / bitrate=2281 / ratetol=1.0 / qcomp=0.70 / qpmin=0 / qpmax=69 / qpstep=4 / cplxblur=20.0 / qblur=0.5 / vbv_maxrate=20000 / vbv_bufsize=20000 / nal_hrd=none / ip_ratio=1.35 / aq=1:0.80
Язык : Russian
Default : Да
Forced : Нет

Аудио
Идентификатор : 2
Формат : AC-3
Формат/Информация : Audio Coding 3
Расширение режима : CM (complete main)
Параметр Endianness формата : Big
Идентификатор кодека : A_AC3
Продолжительность : 1 ч. 16 м.
Вид битрейта : Постоянный
Битрейт : 448 Кбит/сек
Каналы : 6 каналов
Расположение каналов : Front: L C R, Side: L R, LFE
Частота : 48,0 КГц
Битовая глубина : 16 бит
Метод сжатия : С потерями
Размер потока : 246 Мбайт (16%)
Заголовок : DD 5.1 @ 448 kbps
Язык : Russian
Default : Да
Forced : Да
avs [info]: 1036x584p 1:1 @ 2500000/104271 fps (cfr)
x264 [info]: using SAR=1/1
x264 [info]: using cpu capabilities: MMX2 SSE2Fast SSSE3 FastShuffle SSE4.2 AVX XOP FMA4 SSEMisalign LZCNT
x264 [info]: profile High, level 4.1
x264 [info]: frame I:1348 Avg QP:15.26 size:104772
x264 [info]: frame P:30224 Avg QP:19.58 size: 21715
x264 [info]: frame B:78642 Avg QP:22.29 size: 6528
x264 [info]: consecutive B-frames: 4.0% 5.3% 12.9% 51.2% 17.1% 6.7% 1.3% 0.3% 0.2% 0.1% 0.2% 0.2% 0.1% 0.1% 0.3%
x264 [info]: mb I I16..4: 7.1% 54.9% 38.0%
x264 [info]: mb P I16..4: 1.1% 4.8% 3.7% P16..4: 21.0% 16.1% 8.4% 3.1% 0.5% skip:41.2%
x264 [info]: mb B I16..4: 0.2% 0.5% 0.6% B16..8: 18.5% 7.1% 2.7% direct: 1.7% skip:68.7% L0:46.4% L1:46.7% BI: 6.9%
x264 [info]: 8x8 transform intra:49.2% inter:40.1%
x264 [info]: direct mvs spatial:95.7% temporal:4.3%
x264 [info]: coded y,uvDC,uvAC intra: 73.0% 69.9% 51.8% inter: 9.7% 7.4% 3.4%
x264 [info]: i16 v,h,dc,p: 48% 16% 6% 30%
x264 [info]: i8 v,h,dc,ddl,ddr,vr,hd,vl,hu: 13% 10% 12% 9% 10% 10% 10% 12% 14%
x264 [info]: i4 v,h,dc,ddl,ddr,vr,hd,vl,hu: 15% 11% 11% 9% 11% 10% 10% 10% 12%
x264 [info]: i8c dc,h,v,p: 41% 29% 18% 12%
x264 [info]: Weighted P-Frames: Y:2.4% UV:1.4%
x264 [info]: ref P L0: 46.4% 6.2% 15.8% 7.5% 5.1% 4.7% 3.6% 2.4% 1.9% 1.8% 1.4% 1.5% 1.4% 0.3% 0.0%
x264 [info]: ref B L0: 69.0% 10.9% 6.5% 3.3% 2.5% 1.9% 1.7% 1.3% 1.0% 0.8% 0.6% 0.5%
x264 [info]: ref B L1: 92.6% 7.4%
x264 [info]: kb/s:2281.45

x264 [total]: encoded 110214 frames, 6.85 fps, 2281.45 kb/s




   Похожие торренты   Торрент   Размер 
В этой теме нет новых непрочитанных сообщений. Возвращение Буратино (2013) BDRip-AVC от Youtracker | лицензия

10 | 2

1.46 ГБ

В этой теме нет новых непрочитанных сообщений. Возвращение Буратино (2013) BDRip от Youtracker | лицензия

163 | 7

1.46 ГБ

В этой теме нет новых непрочитанных сообщений. Возвращение Буратино (2013) BDRip от Youtracker | лицензия

21 | 2

744.66 МБ

В этой теме нет новых непрочитанных сообщений. Возвращение Буратино (2013) DVD9 R5 от Youtracker | лицензия

2 | 2

5.02 ГБ

В этой теме нет новых непрочитанных сообщений. Возвращение Буратино (2013) Blu-ray 1080p от Youtracker и HDCLUB | 3D-Video | лицензия

1 | 5

23.08 ГБ

В этой теме нет новых непрочитанных сообщений. Возвращение Буратино (2013) BDRip 1080p

38 | 7

3.34 ГБ

В этой теме нет новых непрочитанных сообщений. Возвращение Буратино (2013) BDRip 720p

76 | 10

2.19 ГБ




Вы не можете начинать темы
Вы не можете отвечать на сообщения
Вы не можете редактировать свои сообщения
Вы не можете удалять свои сообщения
Вы не можете добавлять вложения

Перейти:  
Для Мосгорсуда, Роскомнадзора и рекламодателей: mosgorsud-torrent[собачка]yandex.ru
 Вход
ppkBB3cker v.2 © 2008-2014 @ PPK
[ Time : 0.034s | 14 Queries | GZIP : On ]

Торрент трекер RUTOR.IN, Не можете зайти на rutor.org? Какой новый адрес рутор? Какое зеркало рутор? Не работает rutor.org и зеркала? Тогда наш торрент специально для вас. Rutor.in неофициальное зеркало rutor. В случае если у Вас заблокирован rutor или вдруг Вы не можете на него зайти, то Вы без труда сможете скачать бесплатно и без рекламы последние новинки кино, игр, сериалов и прочего у нас, на Rutor.in. Не нужно использовать прокси, чтобы зайти на рутор, достаточно воспользоваться нашим ресурсом. Все новые фильмы, игры, сериалы, книги и музыка за 2013 и 2014 годы через торрент бесплатно. Скачивайте фильмы в хорошем качестве, игры для пк, xbox, playstation без регистрации. У нас вы найдете новые Зарубежные сериалы и Русские сериалы 2013, 2014, 2015 годов. Оставайтесь с нами, качайте любимые фильмы, игры, сериалы, книги и музыку.