img image001 image001 image001 image001 image001 image001 image001 image001 image001 image001 image001 image001 image001 image001 image001

Planets Sun Sun Sun
Статистика раздачи
Автор: Снежана | Размер: 5.53 ГБ | Добавлен: 27 июл 2013
Раздают: 28    Качают: 14
Скачать торрент
Скачать торрент
Описание торрента

СообщениеДобавлено: 27 июл 2013 

#77



Диномама / Dino Time



#77
Год выпуска: 2012
Страна: США, Южная Корея (Myriad Pictures, Toiion Animation Studios, Motif RMC)
Жанр: Мультфильм, Комедия, Приключения, Семейный
Продолжительность: 01:25:25
Перевод: Профессиональный (дублированный)

Режиссеры: Юн-сок Чхве, Джон Кафка / Yoon-suk Choi, John Kafka



Роли озвучивали (на английском):


Sue - Джейн Линч
Dodger - Роб Шнайдер
Julia - Тара Стронг
Ernie - Памела Адлон
Surly - Стивен Болдуин
Tyra - Мелани Гриффит
Sarco - Уильям Болдуин
Max - Юрий Ловенталь
... - Джессика Ди Чикко
... - Мелани Абрамофф

(на русском): Владимир Рыбальченко



Описание: Эрни, его сестра Джулия и лучший друг Макс — неразлучная троица. Однажды, друзья без спроса залезли в странное устройство, которое сконструировал папа Макса, и случайно нажали кнопку запуска. Устройство оказалось машиной времени, и ребята очутились в Юрском периоде, прямо в гнезде Тираннозавра. Но вот радость: самка гигантского ящера приняла ребят за своих детенышей. Но не все, конечно, так безоблачно в мире хищников. Кое-кто мечтает полакомиться непрошеными гостями! Друзьям нужно немедленно уносить ноги и подумать о возвращении. Но как это сделать, если важная деталь машины исчезла?



Премьера: 30 ноября 2012 (31 января 2013)
Релиз на DVD и Blu-Ray: 28 февраля 2013


За исходный BD 3D спасибо .и АДмин!



Качество: BDRip (by Ash61)
Контейнер: MKV
Формат 3D: Half OverUnder / Вертикальная анаморфная стереопара
Порядок ракурсов: левый ракурс первый
Видео кодек: x264
Аудио кодек: AC3



Видео: AVC / 23,976 fps / 1920х1080p / 8 438 Kbps
Аудио: Русский / AC3 / 48 KHz / 5.1 ch / 640 Kbps (Дубляж - BD Rus)
Субтитры: Отсутствуют

General
Unique ID : 232514036801081678036614729195373717390 (0xAEEC9318C287F63BA1465B883A1FE78E)
Complete name : G:DownloadsDinoTime(3D-halfOU)2012(Ash61).mkv
Format : Matroska
Format version : Version 2
File size : 5.53 GiB
Duration : 1h 25mn
Overall bit rate : 9 262 Kbps
Movie name : Диномама / Dino Time (3D) 2012
Encoded date : UTC 2013-05-27 13:38:47
Writing application : mkvmerge v5.8.0 ('No Sleep / Pillow') built on Sep 2 2012 15:37:04
Writing library : libebml v1.2.3 + libmatroska v1.3.0

Video
ID : 1
Format : AVC
Format/Info : Advanced Video Codec
Format profile : High@L4.1
Format settings, CABAC : Yes
Format settings, ReFrames : 4 frames
Codec ID : V_MPEG4/ISO/AVC
Duration : 1h 25mn
Bit rate : 8 438 Kbps
Width : 1 920 pixels
Height : 1 080 pixels
Display aspect ratio : 16:9
Frame rate mode : Constant
Frame rate : 23.976 fps
Color space : YUV
Chroma subsampling : 4:2:0
Bit depth : 8 bits
Scan type : Progressive
Bits/(Pixel*Frame) : 0.170
Stream size : 5.03 GiB (91%)
Title : BDRip by Ash61
Writing library : x264 core 129 r2245 bc13772
Encoding settings : cabac=1 / ref=4 / deblock=1:-3:-3 / analyse=0x3:0x113 / me=umh / subme=9 / psy=1 / psy_rd=1.00:0.15 / mixed_ref=1 / me_range=32 / chroma_me=1 / trellis=2 / 8x8dct=1 / cqm=0 / deadzone=21,11 / fast_pskip=1 / chroma_qp_offset=-3 / threads=12 / lookahead_threads=2 / sliced_threads=0 / nr=0 / decimate=1 / interlaced=0 / bluray_compat=0 / constrained_intra=0 / bframes=7 / b_pyramid=2 / b_adapt=2 / b_bias=0 / direct=3 / weightb=1 / open_gop=0 / weightp=2 / keyint=250 / keyint_min=23 / scenecut=40 / intra_refresh=0 / rc_lookahead=60 / rc=crf / mbtree=1 / crf=17.0 / qcomp=0.70 / qpmin=0 / qpmax=69 / qpstep=4 / vbv_maxrate=40000 / vbv_bufsize=30000 / crf_max=0.0 / nal_hrd=none / frame-packing=4 / ip_ratio=1.40 / aq=1:0.70
Language : English
Default : Yes
Forced : No

Audio
ID : 2
Format : AC-3
Format/Info : Audio Coding 3
Mode extension : CM (complete main)
Format settings, Endianness : Big
Codec ID : A_AC3
Duration : 1h 25mn
Bit rate mode : Constant
Bit rate : 640 Kbps
Channel(s) : 6 channels
Channel positions : Front: L C R, Side: L R, LFE
Sampling rate : 48.0 KHz
Bit depth : 16 bits
Compression mode : Lossy
Stream size : 391 MiB (7%)
Title : Дубляж - BD Rus
Language : Russian
Default : Yes
Forced : No

Menu
00:00:00.000 : :1
00:11:31.149 : :2
00:24:23.504 : :3
00:32:32.284 : :4
00:44:41.304 : :5
00:54:39.193 : :6
01:10:21.175 : :7
01:18:42.885 : :8

























   Похожие торренты   Торрент   Размер 
В этой теме нет новых непрочитанных сообщений. Диномама / Dino Time (2012) BDRip 1080p [Hi10P] от FREEISLAND

4 | 3

2.91 ГБ

В этой теме нет новых непрочитанных сообщений. Диномама / Dino Time (2012) BDRip-AVC от potroks | D

6 | 3

1.46 ГБ

В этой теме нет новых непрочитанных сообщений. Диномама 3D / Dino Time (2012) BDRip | Лицензия

25 | 3

1.37 ГБ

В этой теме нет новых непрочитанных сообщений. Диномама / Dino Time (2012) BDRip-AVC | iPad

9 | 4

1.46 ГБ

В этой теме нет новых непрочитанных сообщений. Диномама 3D / Dino Time (2012) BDRip 720p | Лицензия

7 | 5

2.53 ГБ

В этой теме нет новых непрочитанных сообщений. Диномама / Dino Time (2012) BDRip от Torrent-Xzona

143 | 5

1.46 ГБ

В этой теме нет новых непрочитанных сообщений. Диномама / Dino Time (2012) BDRip 1080 от Torrent-Xzona

22 | 5

4.37 ГБ




Вы не можете начинать темы
Вы не можете отвечать на сообщения
Вы не можете редактировать свои сообщения
Вы не можете удалять свои сообщения
Вы не можете добавлять вложения

Перейти:  
Для Мосгорсуда, Роскомнадзора и рекламодателей: mosgorsud-torrent[собачка]yandex.ru
 Вход
ppkBB3cker v.2 © 2008-2014 @ PPK
[ Time : 0.051s | 16 Queries | GZIP : Off ]

Торрент трекер RUTOR.IN, Не можете зайти на rutor.org? Какой новый адрес рутор? Какое зеркало рутор? Не работает rutor.org и зеркала? Тогда наш торрент специально для вас. Rutor.in неофициальное зеркало rutor. В случае если у Вас заблокирован rutor или вдруг Вы не можете на него зайти, то Вы без труда сможете скачать бесплатно и без рекламы последние новинки кино, игр, сериалов и прочего у нас, на Rutor.in. Не нужно использовать прокси, чтобы зайти на рутор, достаточно воспользоваться нашим ресурсом. Все новые фильмы, игры, сериалы, книги и музыка за 2013 и 2014 годы через торрент бесплатно. Скачивайте фильмы в хорошем качестве, игры для пк, xbox, playstation без регистрации. У нас вы найдете новые Зарубежные сериалы и Русские сериалы 2013, 2014, 2015 годов. Оставайтесь с нами, качайте любимые фильмы, игры, сериалы, книги и музыку.
cron