img image001 image001 image001 image001 image001 image001 image001 image001 image001 image001 image001 image001 image001 image001 image001

Planets Sun Sun Sun
Статистика раздачи
Автор: Снежана | Размер: 5.75 ГБ | Добавлен: 27 июл 2013
Раздают: 60    Качают: 11
Скачать торрент
Скачать торрент
Описание торрента

СообщениеДобавлено: 27 июл 2013 

Ультрамарины

Ultramarines: A Warhammer 40,000 Movie

«In the grim darkness of the far future there is only war»




#77
Год выпуска: 2010
Страна: Великобритания
Жанр: мультфильм, фантастика, боевик...
Продолжительность: 01:16:43
Перевод: Профессиональный (дублированный)
Субтитры: Russian (UTF-8), Russian (UTF-8), English (UTF-8)

Режиссер: Мартин Пик
Сценарий: Дэн Абнетт
Продюсер: Дэвид Керни, Боб Томпсон, Майкл Картер, ...
Оператор: Даррен Ловелл
Композитор: Адам Харви
Монтаж: Дэвид Льюис Смит

В ролях: Теренс Стэмп / Terence Stamp (Cpt. Severus, озвучка), Джон Хёрт / John Hurt (Brother Carnak, озвучка), Шон Пертуи / Sean Pertwee (Brother Proteus, озвучка), Стивен Вэддингтон / Steven Waddington (Brother Verenor, озвучка), Дональд Самптер / Donald Sumpter (Brother Pythol, озвучка), Джонни Харрис / Johnny Harris (Brother Nidon, озвучка), Бен Бишоп / Ben Bishop (Crastor, озвучка), Кристофер Финни / Christopher Finney (Brother Boreas, озвучка)


Описание: Это 41-ое тысячелетие, дикое и мрачное темное будущее, время, в котором Человечество борется за выживание в галактике, расколотой кровопролитием и разрушением. Человечество находится на грани исчезновения, окружаемое со всех сторон ненавистными врагами — чужими, мутантами и предателями. И только колоссальное число Имперских Гвардейцев и несгибаемая сила Космических Десантников, генетически усовершенствованных элитных воинов, способно дать отпор пришельцам. Из всех древних и почетных орденов Космического Десанта, Ультрамарины — возможно, самый могущественный, уважаемый и бесстрашный. Чистые в помыслах и верности Императору, Ультрамарины считаются наиболее мобильными, строгими, дисциплинированными и бесстрашными воинами. Капитан Северус (Severus), почитаемый ветеран-воин с внушительной репутацией, получил безотлагательную просьбу о помощи с далекой планеты Митрон (Mithron). Ничем не примечательная, Митрон имеет только одну стратегически важную ценность — святыню, защищавшуюся множество раз бесчисленными поколениями Космических Десантников из ордена Имперских Кулаков. Какая напасть могла заставить их просить помощи?

Премьера (мир): 29 ноября 2010
Рейтинг MPAA: Лицам до 17 лет обязательно присутствие взрослого




Качество: BDRip.1080р
Формат: MKV
Видео кодек: AVC
Аудио кодеk: AC3
Видео: 1920x1080 (16:9), 24.000 fps, AVC, 9 848 Kbps

Аудио #1: AC3, 448 Kbps, 48.0 KHz, 6 ch (Дубляж)
Аудио #2: AC3, 448 Kbps, 48.0 KHz, 6 ch (English)




Лог: [29.05.2013 6:40:37]
- x264 [info]: frame I:672 Avg QP:15.09 size:145997
- x264 [info]: frame P:29484 Avg QP:16.72 size: 78764
- x264 [info]: frame B:80336 Avg QP:18.74 size: 40312

General
Complete name : Ultramariny.2010.BDRip.1080р.mkv
Format : Matroska
File size : 5.75 GiB
Duration : 1h 16mn
Overall bit rate : 10.7 Mbps
Encoded date : UTC 2013-05-29 02:40:38
Writing application : mkvmerge v6.1.0 ('Old Devil') built on Mar 2 2013 14:32:37
Writing library : libebml v1.3.0 + libmatroska v1.4.0

Video
ID : 1
Format : AVC
Format/Info : Advanced Video Codec
Format profile : High@L4.1
Format settings, CABAC : Yes
Format settings, ReFrames : 4 frames
Muxing mode : Container profile=Unknown@4.1
Codec ID : V_MPEG4/ISO/AVC
Duration : 1h 16mn
Bit rate : 9 848 Kbps
Width : 1 920 pixels
Height : 1 080 pixels
Display aspect ratio : 16:9
Frame rate : 24.000 fps
Color space : YUV
Chroma subsampling : 4:2:0
Bit depth : 8 bits
Scan type : Progressive
Bits/(Pixel*Frame) : 0.198
Stream size : 5.16 GiB (90%)
Writing library : x264 core 133 r2334 a3ac64b
Encoding settings : cabac=1 / ref=4 / deblock=1:0:0 / analyse=0x3:0x133 / me=umh / subme=10 / psy=1 / psy_rd=1.00:0.00 / mixed_ref=1 / me_range=32 / chroma_me=1 / trellis=2 / 8x8dct=1 / cqm=0 / deadzone=21,11 / fast_pskip=0 / chroma_qp_offset=-2 / threads=6 / lookahead_threads=1 / sliced_threads=0 / nr=0 / decimate=1 / interlaced=0 / bluray_compat=0 / constrained_intra=0 / bframes=10 / b_pyramid=2 / b_adapt=2 / b_bias=0 / direct=3 / weightb=1 / open_gop=0 / weightp=2 / keyint=240 / keyint_min=24 / scenecut=40 / intra_refresh=0 / rc=2pass / mbtree=0 / bitrate=9848 / ratetol=2.0 / qcomp=1.00 / qpmin=0 / qpmax=51 / qpstep=4 / cplxblur=20.0 / qblur=0.5 / ip_ratio=1.40 / pb_ratio=1.30 / aq=1:1.00
Color primaries : BT.709-5, BT.1361, IEC 61966-2-4, SMPTE RP177
Transfer characteristics : BT.709-5, BT.1361
Matrix coefficients : BT.709-5, BT.1361, IEC 61966-2-4 709, SMPTE RP177

Audio #1
ID : 2
Format : AC-3
Format/Info : Audio Coding 3
Mode extension : CM (complete main)
Codec ID : A_AC3
Duration : 1h 16mn
Bit rate mode : Constant
Bit rate : 448 Kbps
Channel(s) : 6 channels
Channel positions : Front: L C R, Side: L R, LFE
Sampling rate : 48.0 KHz
Bit depth : 16 bits
Stream size : 246 MiB (4%)
Language : Russian

Audio #2
ID : 3
Format : AC-3
Format/Info : Audio Coding 3
Mode extension : CM (complete main)
Codec ID : A_AC3
Duration : 1h 16mn
Bit rate mode : Constant
Bit rate : 448 Kbps
Channel(s) : 6 channels
Channel positions : Front: L C R, Side: L R, LFE
Sampling rate : 48.0 KHz
Bit depth : 16 bits
Stream size : 246 MiB (4%)

Text #1
ID : 4
Format : UTF-8
Codec ID : S_TEXT/UTF8
Codec ID/Info : UTF-8 Plain Text
Language : Russian

Text #2
ID : 5
Format : UTF-8
Codec ID : S_TEXT/UTF8
Codec ID/Info : UTF-8 Plain Text
Title : Авторский перевод — Surt
Language : Russian

Text #3
ID : 6
Format : UTF-8
Codec ID : S_TEXT/UTF8
Codec ID/Info : UTF-8 Plain Text

Menu
00:00:00.000 : en:00:00:00.000
00:02:09.500 : en:00:02:09.500
00:09:43.542 : en:00:09:43.542
00:14:08.500 : en:00:14:08.500
00:19:07.625 : en:00:19:07.625
00:21:35.292 : en:00:21:35.292
00:26:10.417 : en:00:26:10.417
00:29:44.042 : en:00:29:44.042
00:35:45.875 : en:00:35:45.875
00:40:49.958 : en:00:40:49.958
00:44:56.458 : en:00:44:56.458
00:49:33.750 : en:00:49:33.750
00:53:24.125 : en:00:53:24.125
00:57:05.708 : en:00:57:05.708
01:02:33.292 : en:01:02:33.292
01:07:02.542 : en:01:07:02.542




Релиз группы:



   Похожие торренты   Торрент   Размер 
В этой теме нет новых непрочитанных сообщений. Ультрамарины / Ultramarines: A Warhammer 40,000 Movie (2010) BDRip-AVC от potroks | D

79 | 6

1.46 ГБ

В этой теме нет новых непрочитанных сообщений. Ультрамарины / Ultramarines: A Warhammer 40,000 Movie (2010) Blu-ray

3 | 3

20.03 ГБ

В этой теме нет новых непрочитанных сообщений. Ультрамарины / Ultramarines: A Warhammer 40,000 Movie (2010) DVDRip

9 | 5

697.08 МБ

В этой теме нет новых непрочитанных сообщений. Ультрамарины / Ultramarines: A Warhammer 40,000 Movie (2010) HDRip | D

328 | 36

1.45 ГБ

В этой теме нет новых непрочитанных сообщений. Ультрамарины / Ultramarines: A Warhammer 40,000 Movie (2010) DVDRip от BTT-TEAM

17 | 3

1.6 ГБ

В этой теме нет новых непрочитанных сообщений. Ультрамарины / Ultramarines: A Warhammer 40,000 Movie + Bonus Disc (2010) 2хDVD5

4 | 4

8.1 ГБ

В этой теме нет новых непрочитанных сообщений. АББА: фильм / ABBA: The Movie (1977) BDRip 1080p от FREEISLAND

24 | 9

4.38 ГБ




Вы не можете начинать темы
Вы не можете отвечать на сообщения
Вы не можете редактировать свои сообщения
Вы не можете удалять свои сообщения
Вы не можете добавлять вложения

Перейти:  
Для Мосгорсуда, Роскомнадзора и рекламодателей: mosgorsud-torrent[собачка]yandex.ru
 Вход
ppkBB3cker v.2 © 2008-2014 @ PPK
[ Time : 0.524s | 16 Queries | GZIP : Off ]

Торрент трекер RUTOR.IN, Не можете зайти на rutor.org? Какой новый адрес рутор? Какое зеркало рутор? Не работает rutor.org и зеркала? Тогда наш торрент специально для вас. Rutor.in неофициальное зеркало rutor. В случае если у Вас заблокирован rutor или вдруг Вы не можете на него зайти, то Вы без труда сможете скачать бесплатно и без рекламы последние новинки кино, игр, сериалов и прочего у нас, на Rutor.in. Не нужно использовать прокси, чтобы зайти на рутор, достаточно воспользоваться нашим ресурсом. Все новые фильмы, игры, сериалы, книги и музыка за 2013 и 2014 годы через торрент бесплатно. Скачивайте фильмы в хорошем качестве, игры для пк, xbox, playstation без регистрации. У нас вы найдете новые Зарубежные сериалы и Русские сериалы 2013, 2014, 2015 годов. Оставайтесь с нами, качайте любимые фильмы, игры, сериалы, книги и музыку.