img image001 image001 image001 image001 image001 image001 image001 image001 image001 image001 image001 image001 image001 image001 image001

Planets Sun Sun Sun
Статистика раздачи
Автор: Снежана | Размер: 21.18 ГБ | Добавлен: 27 июл 2013
Раздают: 5    Качают: 3
Скачать торрент
Скачать торрент
Описание торрента

СообщениеДобавлено: 27 июл 2013 

#77

Информация о фильме
Название: Лило и Стич
Оригинальное название: Lilo & Stitch
Год выхода: 2002
Жанр: Мультфильм, фантастика, приключения, семейный
Режиссер: Дин ДеБлуа, Крис Сандерс
В ролях: Дэйви Чейз, Крис Сандерс, Тиа Каррере, Дэвид Огден Стайерз, Кевин МакДональд, Винг Рэймс, Зои Колдуэлл, Джейсон Скотт Ли, Кевин Майкл Ричардсон, Сьюзэн Хегарти, Эми Хилл, Стив Альтерман, Эмили Андерсон, Джек Эйнджел, Билл Асинг, Эрика Бек, Боб Берген, Стивен Блум, Роджер Бампасс, Кэти Кавадини, Дженнифер Дарлинг, Александра Дири, Джон ДеМита, Джуди М. Дюран, Грег Финли, Джефф Фишер, Валери Флюгер, Джесс Харнелл

О фильме:
Дело было так: некоего преступника по имени Стич переправляли в интергалактическую тюрьму, но ему удалось ускользнуть и приземлиться на Земле, где он и встретил Лило. И тут Стич прикинулся собакой, дабы скрыться от преследования интергалактической полиции. Теперь Стич учится тому, чему не был обучен — заботе о других…


Страна: США
Студия: Walt Disney Feature Animation, Walt Disney Pictures
Продолжительность: 01:25:15
Перевод: Дублированный, профессиональный многоголосый, профессиональный двухголосый, авторский одноголосый

Файл
Кодек: MPEG-4 AVC
Качество: Blu-Ray Remux (1080p)
Видео: 28.9 Мбит/с, 1920x1080, 23.976 кадр/с
Звук: Русский (AC3, 6 ch, 640 Кбит/с), (AC3, 6 ch, 448 Кбит/с), (AC3, 6 ch, 384 Кбит/с), (DTS, 6 ch, 755 Кбит/с), украинский (AC3, 2 ch, 192 Кбит/с), английский (DTS-HD MA, 6 ch, 3872 Кбит/с)
Субтитры: Русские, английские

За Диск спасибо - N1ghtjar.
Сохранены оригинальные чаптеры как на Blu-ray.
Перетяжка и синхронизация всех Русских аудио дорожек - Respector.
Конвертация русских, английских субтитров - Respector.
Сборка Ремукса - Respector.

1.Russian(Дублированный - лицензия) - (AC3, 6 ch, 640 Кбит/с)
2.Ukrainian(Дублированный) - (AC3, 2 ch, 192 Кбит/с)
3.Russian(Профессиональный многоголосый) - (АС3, 6 ch, 448 Кбит/с)
4.Russian(Профессиональный двухголосый - П.Гланц и Т.Казакова) - (АС3, 6 ch, 448 Кбит/с)
5.Russian(Авторский одноголосый - А.Гаврилов) - (AC3, 6 ch, 384 Кбит/с)
6.Russian(Авторский одноголосый - Ю.Живов) - (DTS, 6 ch, 755 Кбит/с)
7.English - (DTS-HD MA, 6 ch, 3872 Кбит/с)
Субтитры: Русские (полные), английские (полные)


General
Complete name : Lilo.and.Stich.1.2002.BD-Remux.mkv
Format : Matroska
Format version : Version 4 / Version 2
File size : 21.2 GiB
Duration : 1h 25mn
Overall bit rate mode : Variable
Overall bit rate : 35.5 Mbps
Movie name : Respector
Encoded date : UTC 2013-06-02 07:05:29
Writing application : mkvmerge v6.1.0 ('Old Devil') built on Mar 4 2013 09:10:42
Writing library : libebml v1.3.0 + libmatroska v1.4.0

Video
ID : 1
Format : AVC
Format/Info : Advanced Video Codec
Format profile : High@L4.1
Format settings, CABAC : Yes
Format settings, ReFrames : 4 frames
Codec ID : V_MPEG4/ISO/AVC
Duration : 1h 25mn
Bit rate mode : Variable
Maximum bit rate : 30.0 Mbps
Width : 1 920 pixels
Height : 1 080 pixels
Display aspect ratio : 16:9
Frame rate mode : Constant
Frame rate : 23.976 fps
Color space : YUV
Chroma subsampling : 4:2:0
Bit depth : 8 bits
Scan type : Progressive
Language : English
Default : Yes
Forced : No

Audio #1
ID : 2
Format : AC-3
Format/Info : Audio Coding 3
Mode extension : CM (complete main)
Format settings, Endianness : Big
Codec ID : A_AC3
Duration : 1h 25mn
Bit rate mode : Constant
Bit rate : 640 Kbps
Channel(s) : 6 channels
Channel positions : Front: L C R, Side: L R, LFE
Sampling rate : 48.0 KHz
Bit depth : 16 bits
Compression mode : Lossy
Stream size : 391 MiB (2%)
Title : Dub
Language : Russian
Default : Yes
Forced : Yes

Audio #2
ID : 3
Format : AC-3
Format/Info : Audio Coding 3
Mode extension : CM (complete main)
Format settings, Endianness : Big
Codec ID : A_AC3
Duration : 1h 25mn
Bit rate mode : Constant
Bit rate : 192 Kbps
Channel(s) : 2 channels
Channel positions : Front: L R
Sampling rate : 48.0 KHz
Bit depth : 16 bits
Compression mode : Lossy
Stream size : 117 MiB (1%)
Title : Dub-ukr
Language : Ukrainian
Default : No
Forced : No

Audio #3
ID : 4
Format : AC-3
Format/Info : Audio Coding 3
Mode extension : CM (complete main)
Format settings, Endianness : Big
Codec ID : A_AC3
Duration : 1h 25mn
Bit rate mode : Constant
Bit rate : 448 Kbps
Channel(s) : 6 channels
Channel positions : Front: L C R, Side: L R, LFE
Sampling rate : 48.0 KHz
Bit depth : 16 bits
Compression mode : Lossy
Stream size : 274 MiB (1%)
Title : MVO
Language : Russian
Default : No
Forced : No

Audio #4
ID : 5
Format : AC-3
Format/Info : Audio Coding 3
Mode extension : CM (complete main)
Format settings, Endianness : Big
Codec ID : A_AC3
Duration : 1h 25mn
Bit rate mode : Constant
Bit rate : 448 Kbps
Channel(s) : 6 channels
Channel positions : Front: L C R, Side: L R, LFE
Sampling rate : 48.0 KHz
Bit depth : 16 bits
Compression mode : Lossy
Stream size : 274 MiB (1%)
Title : Glanz and Kazakova
Language : Russian
Default : No
Forced : No

Audio #5
ID : 6
Format : AC-3
Format/Info : Audio Coding 3
Mode extension : CM (complete main)
Format settings, Endianness : Big
Codec ID : A_AC3
Duration : 1h 25mn
Bit rate mode : Constant
Bit rate : 384 Kbps
Channel(s) : 6 channels
Channel positions : Front: L C R, Side: L R, LFE
Sampling rate : 48.0 KHz
Bit depth : 16 bits
Compression mode : Lossy
Stream size : 235 MiB (1%)
Title : Gavrilov
Language : Russian
Default : No
Forced : No

Audio #6
ID : 7
Format : DTS
Format/Info : Digital Theater Systems
Mode : 16
Format settings, Endianness : Big
Codec ID : A_DTS
Duration : 1h 25mn
Bit rate mode : Constant
Bit rate : 755 Kbps
Channel(s) : 6 channels
Channel positions : Front: L C R, Side: L R, LFE
Sampling rate : 48.0 KHz
Bit depth : 24 bits
Compression mode : Lossy
Stream size : 461 MiB (2%)
Title : Zhivov
Language : Russian
Default : No
Forced : No

Audio #7
ID : 8
Format : DTS
Format/Info : Digital Theater Systems
Format profile : MA / Core
Mode : 16
Format settings, Endianness : Big
Codec ID : A_DTS
Duration : 1h 25mn
Bit rate mode : Variable
Bit rate : Unknown / 1 509 Kbps
Channel(s) : 6 channels
Channel positions : Front: L C R, Side: L R, LFE
Sampling rate : 48.0 KHz
Bit depth : 24 bits
Compression mode : Lossless / Lossy
Language : English
Default : No
Forced : No

Text #1
ID : 9
Format : UTF-8
Codec ID : S_TEXT/UTF8
Codec ID/Info : UTF-8 Plain Text
Language : Russian
Default : No
Forced : No

Text #2
ID : 10
Format : UTF-8
Codec ID : S_TEXT/UTF8
Codec ID/Info : UTF-8 Plain Text
Language : English
Default : No
Forced : No

Menu
00:00:00.000 : :Chapter 01
00:02:55.884 : :Chapter 02
00:06:33.893 : :Chapter 03
00:08:29.383 : :Chapter 04
00:09:57.972 : :Chapter 05
00:14:55.895 : :Chapter 06
00:19:58.822 : :Chapter 07
00:21:31.999 : :Chapter 08
00:23:54.391 : :Chapter 09
00:24:54.951 : :Chapter 10
00:28:41.261 : :Chapter 11
00:30:26.491 : :Chapter 12
00:31:43.943 : :Chapter 13
00:35:00.348 : :Chapter 14
00:36:37.653 : :Chapter 15
00:39:30.159 : :Chapter 16
00:40:59.748 : :Chapter 17
00:46:05.012 : :Chapter 18
00:49:34.012 : :Chapter 19
00:50:25.689 : :Chapter 20
00:52:08.291 : :Chapter 21
00:55:11.433 : :Chapter 22
00:55:48.887 : :Chapter 23
00:57:18.977 : :Chapter 24
01:02:33.624 : :Chapter 25
01:03:41.150 : :Chapter 26
01:05:07.153 : :Chapter 27
01:07:53.235 : :Chapter 28
01:13:53.804 : :Chapter 29
01:17:18.634 : :Chapter 30
01:25:14.067 : :Chapter 31


[ [/cnter]


Релиз от: Respector



   Похожие торренты   Торрент   Размер 
В этой теме нет новых непрочитанных сообщений. Лило и Стич 2: Большая проблема Стича / Lilo & Stitch 2: Stitch Has a Glitch (2005) Blu-Ray Remux 1080p

4 | 3

15.75 ГБ

В этой теме нет новых непрочитанных сообщений. Лило и Стич / Lilo & Stitch (2002) BDRip 1080p от Freeisland

174 | 16

4.38 ГБ

В этой теме нет новых непрочитанных сообщений. Лило и Стич / Lilo & Stitch (2002) DVDRip | D

198 | 15

747.39 МБ

В этой теме нет новых непрочитанных сообщений. Лило и Стич / Lilo and Stitch (2002) WEB-DL 720p от Filmrus

72 | 4

3.72 ГБ

В этой теме нет новых непрочитанных сообщений. Лило и Стич / Lilo & Stitch (2002) BDRip от HQCLUB

517 | 22

1.45 ГБ

В этой теме нет новых непрочитанных сообщений. Лило и Стич / Lilo & Stitch (2002) HDRip от Scarabey | D

186 | 15

1.45 ГБ

В этой теме нет новых непрочитанных сообщений. Лило и Стич / Lilo & Stitch (2002) DVDRip от ExKinoRay

33 | 8

1.38 ГБ




Вы не можете начинать темы
Вы не можете отвечать на сообщения
Вы не можете редактировать свои сообщения
Вы не можете удалять свои сообщения
Вы не можете добавлять вложения

Перейти:  
Для Мосгорсуда, Роскомнадзора и рекламодателей: mosgorsud-torrent[собачка]yandex.ru
 Вход
ppkBB3cker v.2 © 2008-2014 @ PPK
[ Time : 0.616s | 14 Queries | GZIP : Off ]

Торрент трекер RUTOR.IN, Не можете зайти на rutor.org? Какой новый адрес рутор? Какое зеркало рутор? Не работает rutor.org и зеркала? Тогда наш торрент специально для вас. Rutor.in неофициальное зеркало rutor. В случае если у Вас заблокирован rutor или вдруг Вы не можете на него зайти, то Вы без труда сможете скачать бесплатно и без рекламы последние новинки кино, игр, сериалов и прочего у нас, на Rutor.in. Не нужно использовать прокси, чтобы зайти на рутор, достаточно воспользоваться нашим ресурсом. Все новые фильмы, игры, сериалы, книги и музыка за 2013 и 2014 годы через торрент бесплатно. Скачивайте фильмы в хорошем качестве, игры для пк, xbox, playstation без регистрации. У нас вы найдете новые Зарубежные сериалы и Русские сериалы 2013, 2014, 2015 годов. Оставайтесь с нами, качайте любимые фильмы, игры, сериалы, книги и музыку.