img image001 image001 image001 image001 image001 image001 image001 image001 image001 image001 image001 image001 image001 image001 image001

Planets Sun Sun Sun
Статистика раздачи
Автор: Снежана | Размер: 4.37 ГБ | Добавлен: 27 июл 2013
Раздают: 91    Качают: 15
Скачать торрент
Скачать торрент
Описание торрента

СообщениеДобавлено: 27 июл 2013 

Похождения императора

The Emperor's New Groove




#77
Год выпуска: 2000
Страна: США
Жанр: мультфильм, фэнтези, комедия, приключения, семейный...
Продолжительность: 01:18:35
Перевод: Профессиональный (дублированный)
Субтитры: Russian (UTF-8), English (UTF-8)

Режиссер: Марк Диндал
Сценарий: Дэвид Рейнольдс, Крис Уильямс, Марк Диндал, ...
Продюсер: Рэнди Фуллмер, Пруденс Фентон, Дон Хан, ...
Оператор: Томас Бэйкер
Композитор: Джон Дебни
Художник: Пол А. Феликс, Томас Кардон, Колин Стимпсон
Монтаж: Том Финэн, Пэм Зигенхаген

В ролях: Дэвид Спейд / David Spade (Emperor Kuzco / рассказчик, озвучка), Джон Гудман / John Goodman (Pacha, озвучка), Эрта Китт / Eartha Kitt (Yzma, озвучка), Патрик Варбертон / Patrick Warburton (Kronk, Yzma's Sidekick, озвучка), Уэнди Мэлик / Wendie Malick (Chicha, Pacha's Wife, озвучка), Келлиэнн Келсо / Kellyann Kelso (Chaca, Pacha's Daughter, озвучка), Стивен Дж. Андерсон / Stephen J. Anderson (озвучка), Эли Расселл Линэц / Eli Russell Linnetz (Tipo, Pacha's Son, озвучка)


Описание: Как и положено царственной особе, император Куско — очень занятой человек. Но последнее его занятие грозит обернуться большими неприятностями: правитель решил построить для себя водный парк, предварительно снеся одну из деревень королевства.Этот план непременно бы воплотился в жизнь, если бы неприятность не произошла уже с самим императором: недруги превратили его в ламу! Но напасти на этом не закончились: единственным человеком, который мог помочь императору вернуться на трон и в собственное тело, оказывается житель деревни, обреченной на снос. Дорога домой для Куско обещает быть очень долгой.


Бюджет: $100 000 000
Сборы в США: $89 302 687
Сборы в мире: + $80 025 000 = $169 327 687
Зрители: США 16.4 млн , Германия 2.81 млн , Великобритания 2.09 млн
Премьера (мир): 10 декабря 2000, ...
Премьера (РФ): 1 ноября 2001, «Каскад»
Релиз на DVD: 5 октября 2009, «ВС трейд», ...
Релиз на Blu-Ray: 11 июня 2013, «Уолт Дисней Компани СНГ», ...
Рейтинг MPAA: Нет возрастных ограничений




Качество: BDRip.1080р
Формат: MKV
Видео кодек: AVC
Аудио кодеk: AC3
Видео: 1820x1080 (1.685:1), 23.976 fps, AVC, 7 088 Kbps

Аудио #1: AC3, 448 Kbps, 48.0 KHz, 6 ch (Дубляж)
Аудио #2: AC3, 448 Kbps, 48.0 KHz, 6 ch (English)





Лог:
- x264 [info]: frame I:1003 Avg QP: 9.86 size:260673
- x264 [info]: frame P:33296 Avg QP:12.57 size: 69624
- x264 [info]: frame B:78483 Avg QP:14.33 size: 20205

General
Complete name : Pohozhdenie.imperatora.2000.BDRip.1080p.mkv
Format : Matroska
File size : 4.37 GiB
Duration : 1h 18mn
Overall bit rate : 7 965 Kbps
Encoded date : UTC 2013-06-05 03:08:52
Writing application : mkvmerge v6.1.0 ('Old Devil') built on Mar 2 2013 14:32:37
Writing library : libebml v1.3.0 + libmatroska v1.4.0

Video
ID : 1
Format : AVC
Format/Info : Advanced Video Codec
Format profile : High@L4.1
Format settings, CABAC : Yes
Format settings, ReFrames : 4 frames
Muxing mode : Container profile=Unknown@4.1
Codec ID : V_MPEG4/ISO/AVC
Duration : 1h 18mn
Bit rate : 7 088 Kbps
Width : 1 820 pixels
Height : 1 080 pixels
Display aspect ratio : 1.685
Frame rate : 23.976 fps
Color space : YUV
Chroma subsampling : 4:2:0
Bit depth : 8 bits
Scan type : Progressive
Bits/(Pixel*Frame) : 0.150
Stream size : 3.79 GiB (87%)
Writing library : x264 core 133 r2334 a3ac64b
Encoding settings : cabac=1 / ref=4 / deblock=1:0:0 / analyse=0x3:0x133 / me=umh / subme=10 / psy=1 / psy_rd=0.00:0.00 / mixed_ref=1 / me_range=32 / chroma_me=1 / trellis=2 / 8x8dct=1 / cqm=0 / deadzone=21,11 / fast_pskip=0 / chroma_qp_offset=0 / threads=6 / lookahead_threads=1 / sliced_threads=0 / nr=0 / decimate=1 / interlaced=0 / bluray_compat=0 / constrained_intra=0 / bframes=8 / b_pyramid=2 / b_adapt=2 / b_bias=0 / direct=3 / weightb=1 / open_gop=0 / weightp=2 / keyint=240 / keyint_min=24 / scenecut=40 / intra_refresh=0 / rc_lookahead=50 / rc=2pass / mbtree=0 / bitrate=7088 / ratetol=2.0 / qcomp=1.00 / qpmin=0 / qpmax=51 / qpstep=4 / cplxblur=20.0 / qblur=0.5 / vbv_maxrate=50000 / vbv_bufsize=62500 / nal_hrd=none / ip_ratio=1.40 / pb_ratio=1.30 / aq=1:1.00
Color primaries : BT.709-5, BT.1361, IEC 61966-2-4, SMPTE RP177
Transfer characteristics : BT.709-5, BT.1361
Matrix coefficients : BT.709-5, BT.1361, IEC 61966-2-4 709, SMPTE RP177

Audio #1
ID : 2
Format : AC-3
Format/Info : Audio Coding 3
Mode extension : CM (complete main)
Codec ID : A_AC3
Duration : 1h 18mn
Bit rate mode : Constant
Bit rate : 448 Kbps
Channel(s) : 6 channels
Channel positions : Front: L C R, Side: L R, LFE
Sampling rate : 48.0 KHz
Bit depth : 16 bits
Stream size : 252 MiB (6%)
Title : Дубляж
Language : Russian

Audio #2
ID : 3
Format : AC-3
Format/Info : Audio Coding 3
Mode extension : CM (complete main)
Codec ID : A_AC3
Duration : 1h 18mn
Bit rate mode : Constant
Bit rate : 448 Kbps
Channel(s) : 6 channels
Channel positions : Front: L C R, Side: L R, LFE
Sampling rate : 48.0 KHz
Bit depth : 16 bits
Stream size : 252 MiB (6%)

Text #1
ID : 4
Format : UTF-8
Codec ID : S_TEXT/UTF8
Codec ID/Info : UTF-8 Plain Text
Language : Russian

Text #2
ID : 5
Format : UTF-8
Codec ID : S_TEXT/UTF8
Codec ID/Info : UTF-8 Plain Text

Menu
00:00:00.000 : :Chapter 01
00:01:24.250 : :Chapter 02
00:03:57.320 : :Chapter 03
00:04:27.517 : :Chapter 04
00:05:29.495 : :Chapter 05
00:08:08.488 : :Chapter 06
00:10:36.135 : :Chapter 07
00:11:30.439 : :Chapter 08
00:12:50.644 : :Chapter 09
00:17:10.029 : :Chapter 10
00:20:11.418 : :Chapter 11
00:23:28.490 : :Chapter 12
00:27:06.958 : :Chapter 13
00:29:12.667 : :Chapter 14
00:34:02.957 : :Chapter 15
00:35:49.522 : :Chapter 16
00:36:30.313 : :Chapter 17
00:38:23.134 : :Chapter 18
00:43:54.381 : :Chapter 19
00:46:32.331 : :Chapter 20
00:53:05.557 : :Chapter 21
00:54:08.912 : :Chapter 22
00:55:06.303 : :Chapter 23
00:57:25.191 : :Chapter 24
01:00:41.554 : :Chapter 25
01:01:44.534 : :Chapter 26
01:09:54.899 : :Chapter 27
01:12:16.832 : :Chapter 28
01:18:23.949 : :Chapter 29






Релиз группы:



   Похожие торренты   Торрент   Размер 
В этой теме нет новых непрочитанных сообщений. Похождения императора. Дилогия / The Emperor's New Groove. Kronk's New Groove (2000, 2005) BDRip от RG Jolly Roger

94 | 19

2.17 ГБ

В этой теме нет новых непрочитанных сообщений. Похождения императора / The Emperor's New Groove (2000) BDRip-AVC от MediaClub | D, A

46 | 10

1.61 ГБ

В этой теме нет новых непрочитанных сообщений. Похождения императора / The Emperor's New Groove (2000) BDRip от HQCLUB

208 | 20

1.45 ГБ

В этой теме нет новых непрочитанных сообщений. Похождения императора / The Emperor's New Groove (2000) BDRip 720p от leonardo 59

113 | 3

1.8 ГБ

В этой теме нет новых непрочитанных сообщений. Похождения императора / The Emperor's New Groove (2000) DVDRip

152 | 27

1.37 ГБ

В этой теме нет новых непрочитанных сообщений. Похождения императора 2: Приключения Кронка / The Emperor's New Groove 2: Kronk's New Groove (2005) BDRip от HQCLUB

158 | 12

1.45 ГБ

В этой теме нет новых непрочитанных сообщений. Похождения императора 2: Приключения Кронка / Kronk's New Groove (2005) BDRip 1080p от Freeisland

24 | 8

4.37 ГБ




Вы не можете начинать темы
Вы не можете отвечать на сообщения
Вы не можете редактировать свои сообщения
Вы не можете удалять свои сообщения
Вы не можете добавлять вложения

Перейти:  
Для Мосгорсуда, Роскомнадзора и рекламодателей: mosgorsud-torrent[собачка]yandex.ru
 Вход
ppkBB3cker v.2 © 2008-2014 @ PPK
[ Time : 0.052s | 16 Queries | GZIP : Off ]

Торрент трекер RUTOR.IN, Не можете зайти на rutor.org? Какой новый адрес рутор? Какое зеркало рутор? Не работает rutor.org и зеркала? Тогда наш торрент специально для вас. Rutor.in неофициальное зеркало rutor. В случае если у Вас заблокирован rutor или вдруг Вы не можете на него зайти, то Вы без труда сможете скачать бесплатно и без рекламы последние новинки кино, игр, сериалов и прочего у нас, на Rutor.in. Не нужно использовать прокси, чтобы зайти на рутор, достаточно воспользоваться нашим ресурсом. Все новые фильмы, игры, сериалы, книги и музыка за 2013 и 2014 годы через торрент бесплатно. Скачивайте фильмы в хорошем качестве, игры для пк, xbox, playstation без регистрации. У нас вы найдете новые Зарубежные сериалы и Русские сериалы 2013, 2014, 2015 годов. Оставайтесь с нами, качайте любимые фильмы, игры, сериалы, книги и музыку.