img image001 image001 image001 image001 image001 image001 image001 image001 image001 image001 image001 image001 image001 image001 image001

Planets Sun Sun Sun
Статистика раздачи
Автор: Снежана | Размер: 1.06 ГБ | Добавлен: 27 июл 2013
Раздают: 33    Качают: 6
Скачать торрент
Скачать торрент
Описание торрента

СообщениеДобавлено: 27 июл 2013 


Инфомация о фильме
Оригинальное название: Наши мульти - пульти: Следствие ведут Колобки. Сборник 15
Год выхода: 1975-1989
Жанр: Мультфильмы
Режиссер: Александр Татарский, Аида Зябликова, Дмитрий Бабиченко, Лидия Сурикова
В ролях: Л.Ленц, И.Гусев
О фильме
Цикл предназначен для самого маленького зрителя и состоит из нескольких фильмов.

1. Следствие ведут колобки (2 серии) (1983)
2. Следствие ведут колобки (3 серии) (1986 - 1987)
3. Басни С.Михалкова (2 фильма) (1975)
- Петух в гостях
- Кабан и хомут
4. Краденое солнце (1978)
5. Как Иван-Молодец царску дочку спасал (1989)

Страна: CCCР
Студия: Творческое Объединение "Экран"
Продолжительность: 01:17:40
Перевод: Не требуется
Файл
Формат: MKV
Качество: DVDRip-AVC
Видео: MPEG4 AVC 768 x 576, 25.000 fps, 1750 - 1944 Кбит/сек
Звук: AC-3, 2 ch, 192 Кб/сек
Субтитры: Нет

General
Unique ID : 195706841024739863581778103979396381983 (0x933BC43C4CAE53A5AC2A3E3480913D1F)
Complete name : D:DownloadsСделанные фильмыNashi.multi-pulti.Sledstvie.vedut.kolobki.1975-1989.x264.DVDRip.(AVC).by.Тorrent-Хzona.mkv
Format : Matroska
Format version : Version 2
File size : 1.06 GiB
Duration : 1h 17mn
Overall bit rate : 1 944 Kbps
Encoded date : UTC 2013-05-28 02:39:09
Writing application : mkvmerge v6.1.0 ('Old Devil') built on Mar 4 2013 09:10:42
Writing library : libebml v1.3.0 + libmatroska v1.4.0
Video
ID : 1
Format : AVC
Format/Info : Advanced Video Codec
Format profile : High@L4.1
Format settings, CABAC : Yes
Format settings, ReFrames : 4 frames
Codec ID : V_MPEG4/ISO/AVC
Duration : 1h 17mn
Bit rate : 1 750 Kbps
Width : 768 pixels
Height : 576 pixels
Display aspect ratio : 4:3
Frame rate mode : Constant
Frame rate : 25.000 fps
Color space : YUV
Chroma subsampling : 4:2:0
Bit depth : 8 bits
Scan type : Progressive
Bits/(Pixel*Frame) : 0.158
Stream size : 952 MiB (88%)
Writing library : x264 core 130 r2273 b3065e6
Encoding settings : cabac=1 / ref=3 / deblock=1:-1:-1 / analyse=0x3:0x111 / me=umh / subme=9 / psy=1 / psy_rd=1.00:0.15 / mixed_ref=1 / me_range=32 / chroma_me=1 / trellis=2 / 8x8dct=1 / cqm=0 / deadzone=21,11 / fast_pskip=0 / chroma_qp_offset=-3 / threads=3 / lookahead_threads=1 / sliced_threads=0 / nr=0 / decimate=1 / interlaced=0 / bluray_compat=0 / constrained_intra=0 / bframes=3 / b_pyramid=2 / b_adapt=0 / b_bias=0 / direct=1 / weightb=1 / open_gop=0 / weightp=2 / keyint=250 / keyint_min=25 / scenecut=40 / intra_refresh=0 / rc_lookahead=50 / rc=2pass / mbtree=1 / bitrate=1750 / ratetol=1.0 / qcomp=0.60 / qpmin=0 / qpmax=69 / qpstep=4 / cplxblur=20.0 / qblur=0.5 / ip_ratio=1.40 / aq=1:1.00
Default : Yes
Forced : No
Audio
ID : 2
Format : AC-3
Format/Info : Audio Coding 3
Mode extension : CM (complete main)
Format settings, Endianness : Big
Codec ID : A_AC3
Duration : 1h 17mn
Bit rate mode : Constant
Bit rate : 192 Kbps
Channel(s) : 1 channel
Channel positions : Front: C
Sampling rate : 48.0 KHz
Bit depth : 16 bits
Compression mode : Lossy
Stream size : 107 MiB (10%)
Default : Yes
Forced : No



Релиз от: &



   Похожие торренты   Торрент   Размер 
В этой теме нет новых непрочитанных сообщений. Следствие ведут Колобки (1986) DVDRip

108 | 12

280.62 МБ

В этой теме нет новых непрочитанных сообщений. Следствие ведут Колобки [01-04 из 04] (1986-1987) DVDRip-AVC

31 | 9

343.46 МБ

В этой теме нет новых непрочитанных сообщений. Следствие ведут Колобки [01-04 из 04] (1986-1987) DVDRip-AVC от Leonardo and Scarabey

775 | 19

402.47 МБ

В этой теме нет новых непрочитанных сообщений. Следствие ведут Колобки (1983) TVRip

18 | 13

250.21 МБ

В этой теме нет новых непрочитанных сообщений. Тяп-ляп. Сборник мультфильмов (1968-1989) DVDRip-AVC от Тorrent-Хzona

4 | 3

1007.75 МБ

В этой теме нет новых непрочитанных сообщений. Происшествие в стране Мульти-Пульти (1981) MP3

19 | 4

71.28 МБ

В этой теме нет новых непрочитанных сообщений. Александр Левенбук - Происшествие в стране Мульти-Пульти! (2007) FLAC

73 | 5

233.89 МБ




Вы не можете начинать темы
Вы не можете отвечать на сообщения
Вы не можете редактировать свои сообщения
Вы не можете удалять свои сообщения
Вы не можете добавлять вложения

Перейти:  
Для Мосгорсуда, Роскомнадзора и рекламодателей: mosgorsud-torrent[собачка]yandex.ru
 Вход
ppkBB3cker v.2 © 2008-2014 @ PPK
[ Time : 0.050s | 15 Queries | GZIP : Off ]

Торрент трекер RUTOR.IN, Не можете зайти на rutor.org? Какой новый адрес рутор? Какое зеркало рутор? Не работает rutor.org и зеркала? Тогда наш торрент специально для вас. Rutor.in неофициальное зеркало rutor. В случае если у Вас заблокирован rutor или вдруг Вы не можете на него зайти, то Вы без труда сможете скачать бесплатно и без рекламы последние новинки кино, игр, сериалов и прочего у нас, на Rutor.in. Не нужно использовать прокси, чтобы зайти на рутор, достаточно воспользоваться нашим ресурсом. Все новые фильмы, игры, сериалы, книги и музыка за 2013 и 2014 годы через торрент бесплатно. Скачивайте фильмы в хорошем качестве, игры для пк, xbox, playstation без регистрации. У нас вы найдете новые Зарубежные сериалы и Русские сериалы 2013, 2014, 2015 годов. Оставайтесь с нами, качайте любимые фильмы, игры, сериалы, книги и музыку.