img image001 image001 image001 image001 image001 image001 image001 image001 image001 image001 image001 image001 image001 image001 image001

Planets Sun Sun Sun
Статистика раздачи
Автор: Снежана | Размер: 2.91 ГБ | Добавлен: 27 июл 2013
Раздают: 518    Качают: 20
Скачать торрент
Скачать торрент
Описание торрента

СообщениеДобавлено: 27 июл 2013 

Мулан 2 / Mulan II
(2004)
BDRip 1080p [Hi10P] от FREEISLAND


«She's primped. She's engaged. She's back.»




Год выпуска: 2004
Страна: США
Жанр: мультфильм, мюзикл, боевик, комедия, семейный
Продолжительность: 1 ч. 18 м. 41 с.
Перевод: Дублированный
Режиссер: Даррел Руни, Линн Сауферлэнд
Продюссер: Дженнифер Блом, Пол Сабелла, Роберт Винтроп
Сценарий: Майкл Лакер, Крис Паркер, Роджер С.Х. Шульман
Композитор: Джоэл МакНили
Студия: Walt Disney Pictures
Премьера в мире: 3 ноября 2004



Роли дублировали:
Сауле Искакова - Mulan, Геннадий Смирнов - Shang, Валерий Кухарешин - Mushu, Ольга Аршанская - Mei, Владимир Ермилов - Yao, Андрей Пирог - Yao (вокал), Мария Соснякова - Ting Ting, Артур Ераносов - Ling, Юлия Рудина - Su, Алексей Гурьев - Chien-Po, Геннадий Богачёв - The Emperor, Валерий Никитенко - First Ancestor, Кира Крейлис-Петрова - Grandmother Fa, Татьяна Иванова - Fa Li, Вадим Яковлев - Fa Zhou

Описание:
Новое увлекательное путешествие с уже знакомыми героями — отважной китайской воительницей Мулан и ее верным другом Ли Шанем. На сей раз им, храбрым победителям монгольских орд, предстоит самая ответственная миссия в жизни. Это... свадьба.Но, прежде чем Мулан и Ли Шань поженятся, они должны позаботиться и о чужом счастье, доставив трех китайских принцесс их женихам. Легкая задача? Не очень, если вам «помогает» самый легкомысленный дракон в мире Мушу, а коварные монголы уже затевают новые козни!..

Внимание!

Рип в High 10 Profile, в настоящее время не поддерживается большинством аппаратных проигрывателей.
Для корректного воспроизведения может потребоваться обновление ПО.
Владельцам несовместимого железа просьба не беспокоить, на трекере есть альтернативные релизы.


Качество: BDRip 1080p Hi10P (SSIM: 0.9914284)
Исходник: Blu-Ray Disc
Контейнер: MKV
Видео кодек: x264 High10@L5.1
Аудио кодек: AC3
Видео: AVC at 4650 Кбит/сек, 1920 x 1080 (1.778) at 23.976 fps
Аудио: AC-3 at 640 Кбит/сек, 6 каналов, 48,0 КГц
Субтитры: русские полные (SRT/UTF-8)
Навигация по главам: есть

Общее
Уникальный идентификатор : 217649716746050252971344439890653587242 (0xA3BDCF892C96D049AAF0806F00ADA72A)
Полное имя : Мулан 2 [ Mulan 2] (2004) BDRip-Hi10P 1080p by_F.HD.mkv
Формат : Matroska
Версия формата : Version 4 / Version 2
Размер файла : 2,91 Гбайт
Продолжительность : 1 ч. 18 м.
Общий поток : 5290 Кбит/сек
Название фильма : релиз от FREEISLAND.ORG
Дата кодирования : UTC 2013-06-06 09:18:48
Программа кодирования : mkvmerge v6.1.0 ('Old Devil') built on Mar 2 2013 14:32:37
Библиотека кодирования : libebml v1.3.0 + libmatroska v1.4.0

Видео
Идентификатор : 1
Формат : AVC
Формат/Информация : Advanced Video Codec
Профиль формата : High 10@L5.1
Параметр CABAC формата : Да
Параметр ReFrames формата : 16 кадров
Идентификатор кодека : V_MPEG4/ISO/AVC
Продолжительность : 1 ч. 18 м.
Битрейт : 4650 Кбит/сек
Ширина : 1920 пикселей
Высота : 1080 пикселей
Соотношение сторон : 16:9
Частота кадров : 23,976 кадра/сек
Цветовое пространство : YUV
Субдискретизация насыщенности : 4:2:0
Битовая глубина : 10 бит
Тип развёртки : Прогрессивная
Бит/(Пиксели*Кадры) : 0.094
Размер потока : 2,50 Гбайт (86%)
Библиотека кодирования : x264 core 133 r2334+704+50 a7549b7 tMod [10-bit@all X86_64]
Настройки программы : cabac=1 / ref=16 / deblock=1:1:1 / analyse=0x3:0x133 / me=umh / subme=11 / psy=1 / fade_compensate=0.00 / psy_rd=1.00:0.10 / mixed_ref=1 / me_range=64 / chroma_me=1 / trellis=2 / 8x8dct=1 / cqm=0 / deadzone=21,11 / fast_pskip=0 / chroma_qp_offset=-3 / threads=12 / lookahead_threads=3 / sliced_threads=0 / nr=0 / decimate=1 / interlaced=0 / bluray_compat=0 / constrained_intra=0 / fgo=0 / bframes=13 / b_pyramid=2 / b_adapt=2 / b_bias=0 / direct=3 / weightb=1 / open_gop=0 / weightp=2 / keyint=260 / keyint_min=21 / scenecut=40 / intra_refresh=0 / rc_lookahead=0 / rc=2pass / mbtree=0 / bitrate=4650 / ratetol=1.0 / qcomp=1.00 / qpmin=0 / qpmax=48 / qpstep=4 / cplxblur=20.0 / qblur=0.5 / vbv_maxrate=240000 / vbv_bufsize=240000 / nal_hrd=none / ip_ratio=1.40 / pb_ratio=1.30 / aq=4:0.73 / aq-sensitivity=15.00 / aq-factor=1.00:1.00:1.00 / aq2=1:1.10 / aq2-sensitivity=20.00 / aq2-factor=1.00:1.00:1.00 / aq3=0
Default : Да
Forced : Нет
Основные цвета : BT.709-5, BT.1361, IEC 61966-2-4, SMPTE RP177
Характеристики трансфера : BT.709-5, BT.1361
Коэффициенты матрицы : BT.709-5, BT.1361, IEC 61966-2-4 709, SMPTE RP177

Аудио
Идентификатор : 2
Формат : AC-3
Формат/Информация : Audio Coding 3
Расширение режима : CM (complete main)
Идентификатор кодека : A_AC3
Продолжительность : 1 ч. 18 м.
Вид битрейта : Постоянный
Битрейт : 640 Кбит/сек
Каналы : 6 каналов
Расположение каналов : Front: L C R, Side: L R, LFE
Частота : 48,0 КГц
Битовая глубина : 16 бит
Метод сжатия : С потерями
Размер потока : 360 Мбайт (12%)
Заголовок : Dub
Язык : Russian
Default : Да
Forced : Нет

Текст
Идентификатор : 3
Формат : UTF-8
Идентификатор кодека : S_TEXT/UTF8
Идентификатор кодека/Информация : UTF-8 Plain Text
Заголовок : Full
Язык : Russian
Default : Нет
Forced : Нет

Меню
00:00:00.000 : en:01. Opening Credits
00:03:12.233 : en:02. "Lesson #1"
00:08:13.701 : en:03. Shang's Proposal
00:12:13.232 : en:04. Mushu's On His Way Out!
00:14:16.355 : en:05. Yin & Yang
00:17:17.202 : en:06. The New Mission
00:19:58.197 : en:07. "a Girl Worth Fighting for"
00:25:08.089 : en:08. The Princesses and Their Guards
00:31:52.660 : en:09. Mushu's Meddling
00:38:01.779 : en:10. "Like Other Girls"
00:42:19.954 : en:11. Mushu's Puppet Show
00:51:13.070 : en:12. Breaking a Vow
01:02:09.767 : en:13. Fulfilling the Duty
01:04:58.895 : en:14. The Wedding
01:10:14.126 : en:15. Back on the Pedestal
01:13:24.817 : en:16. End Credits / "(I Wanna Be) Like Other Girls" / "Here Beside Me"













Релиз от:

Если у вас возникают вопросы типа:
-почему у меня есть звук и отсутствует изображение?
-почему у меня рассыпается картинка?
-почему у меня картинка фонит синевой или зеленью?
-зачем и кому всё это нужно?
и тому подобные, читаем FAQ.
ссылка на FAQ запрещена правилами.

По этому, гуглим на тему спойлера (Что такое 10-ти битное видео (High 10 Profile - Hi10P), и как его смотреть?).



   Похожие торренты   Торрент   Размер 
В этой теме нет новых непрочитанных сообщений. Мулан / Mulan (1998) BDRip 1080p [Hi10P] от FREEISLAND

155 | 11

2.91 ГБ

В этой теме нет новых непрочитанных сообщений. Мулан 2 / Mulan 2 (2004) DVDRip-AVC от FREEISLAND

171 | 13

1.36 ГБ

В этой теме нет новых непрочитанных сообщений. Мулан / Mulan (1998) HDTVRip-AVC 1080p от FREEISLAND

41 | 13

4.36 ГБ

В этой теме нет новых непрочитанных сообщений. Мулан 2 / Mulan 2 (2004) BDRip от HQCLUB

349 | 41

1.45 ГБ

В этой теме нет новых непрочитанных сообщений. Мулан 2 / Mulan 2 (2004) BDRip-AVC от MediaClub | D

261 | 11

1.54 ГБ

В этой теме нет новых непрочитанных сообщений. Мулан. Дилогия / Mulan: Dilogy (1998,2004) BDRip 720p от Leonardo and Scarabey | Лицензия

170 | 28

4.88 ГБ

В этой теме нет новых непрочитанных сообщений. Мулан 2 / Mulan II (2004) HDRip от Scarabey | D

41 | 4

696.47 МБ




Вы не можете начинать темы
Вы не можете отвечать на сообщения
Вы не можете редактировать свои сообщения
Вы не можете удалять свои сообщения
Вы не можете добавлять вложения

Перейти:  
Для Мосгорсуда, Роскомнадзора и рекламодателей: mosgorsud-torrent[собачка]yandex.ru
 Вход
ppkBB3cker v.2 © 2008-2014 @ PPK
[ Time : 0.052s | 15 Queries | GZIP : Off ]

Торрент трекер RUTOR.IN, Не можете зайти на rutor.org? Какой новый адрес рутор? Какое зеркало рутор? Не работает rutor.org и зеркала? Тогда наш торрент специально для вас. Rutor.in неофициальное зеркало rutor. В случае если у Вас заблокирован rutor или вдруг Вы не можете на него зайти, то Вы без труда сможете скачать бесплатно и без рекламы последние новинки кино, игр, сериалов и прочего у нас, на Rutor.in. Не нужно использовать прокси, чтобы зайти на рутор, достаточно воспользоваться нашим ресурсом. Все новые фильмы, игры, сериалы, книги и музыка за 2013 и 2014 годы через торрент бесплатно. Скачивайте фильмы в хорошем качестве, игры для пк, xbox, playstation без регистрации. У нас вы найдете новые Зарубежные сериалы и Русские сериалы 2013, 2014, 2015 годов. Оставайтесь с нами, качайте любимые фильмы, игры, сериалы, книги и музыку.
cron