img image001 image001 image001 image001 image001 image001 image001 image001 image001 image001 image001 image001 image001 image001 image001

Planets Sun Sun Sun
Статистика раздачи
Автор: Снежана | Размер: 4.38 ГБ | Добавлен: 27 июл 2013
Раздают: 113    Качают: 10
Скачать торрент
Скачать торрент
Описание торрента

СообщениеДобавлено: 27 июл 2013 

101 далматинец

One Hundred and One Dalmatians

«One great big ONEderful motion picture»




#77
Год выпуска: 1961
Страна: США
Жанр: мультфильм, приключения, семейный...
Продолжительность: 01:19:16
Перевод: Профессиональный (дублированный)
Субтитры: Russian (UTF-8), English (UTF-8)

Режиссер: Клайд Джероними, Хэмильтон Ласки, Вольфганг Райтерман
Сценарий: Билл Пит, Доди Смит
Продюсер: Уолт Дисней
Композитор: Джордж Брунс
Художник: Кен Андерсон
Монтаж: Рой М. Брюэр мл., Дональд Холлидэй

В ролях: Род Тейлор / Rod Taylor (Pongo, озвучка), Дж. Пэт О’Мэлли / J. Pat O'Malley (Colonel / Jasper, озвучка), Бетти Лу Джерсон / Betty Lou Gerson (Cruella De Vil / Miss Birdwell, озвучка), Марта Вентуорф / Martha Wentworth (Nanny / Queenie / Lucy, озвучка), Бен Райт / Ben Wright (Roger, озвучка), Кейт Бауэр / Cate Bauer (Perdita, озвучка), Дэвид Фрэнкхэм / David Frankham (в титрах: Dave Frankham) (Sgt. Tibs, озвучка), Фредерик Уорлок / Frederick Worlock (в титрах: Fred Worlock) (Horace / Inspector Craven, озвучка)


Описание: Трогательная и невероятно интригующая история поиска и спасения щенят далматинских догов, которые были похищены у своих хозяев по приказу злобной фурии, Стервеллы Де Виль.Алчная модница задумала сшить себе пятнистый меховой наряд из шкурок бедных малюток. Однако животные, объединившись, ухитряются проучить ее.


Бюджет: $4 000 000
Сборы в США: $144 880 014
Сборы в мире: + $71 000 000 = $215 880 014
Зрители: США 99.9 млн , Франция 14.7 млн , Великобритания 9.1 млн
Премьера (мир): 25 января 1961, ...
Релиз на DVD: 18 декабря 2008, «Мьюзик-Трейд», ...
Релиз на Blu-Ray: 9 апреля 2013, «Уолт Дисней Компани СНГ», ...
Рейтинг MPAA: Нет возрастных ограничений




Качество: BDRip.1080р
Формат: MKV
Видео кодек: AVC
Аудио кодеk: AC3
Видео: 1440x1080 (4:3), 23.976 fps, AVC, 6 619 Kbps

Аудио #1: AC3, 640 Kbps, 48.0 KHz, 6 ch (Дубляж)
Аудио #2: AC3, 640 Kbps, 48.0 KHz, 6 ch (English)





Лог:
- x264 [info]: frame I:1126 Avg QP:14.58 size:227315
- x264 [info]: frame P:34861 Avg QP:17.14 size: 62348
- x264 [info]: frame B:78045 Avg QP:18.82 size: 19298

General
Complete name : 101.dalmatinec.1961.BDRip.1080р.mkv
Format : Matroska
File size : 4.38 GiB
Duration : 1h 19mn
Overall bit rate : 7 902 Kbps
Encoded date : UTC 2013-06-06 10:52:21
Writing application : mkvmerge v6.1.0 ('Old Devil') built on Mar 2 2013 14:32:37
Writing library : libebml v1.3.0 + libmatroska v1.4.0

Video
ID : 1
Format : AVC
Format/Info : Advanced Video Codec
Format profile : High@L4.1
Format settings, CABAC : Yes
Format settings, ReFrames : 4 frames
Format settings, GOP : N=15
Muxing mode : Container profile=Unknown@4.1
Codec ID : V_MPEG4/ISO/AVC
Duration : 1h 19mn
Bit rate : 6 619 Kbps
Width : 1 440 pixels
Height : 1 080 pixels
Display aspect ratio : 4:3
Frame rate : 23.976 fps
Color space : YUV
Chroma subsampling : 4:2:0
Bit depth : 8 bits
Scan type : Progressive
Bits/(Pixel*Frame) : 0.178
Stream size : 3.58 GiB (82%)
Writing library : x264 core 133 r2334 a3ac64b
Encoding settings : cabac=1 / ref=4 / deblock=1:0:0 / analyse=0x3:0x133 / me=umh / subme=10 / psy=1 / psy_rd=1.00:0.00 / mixed_ref=1 / me_range=32 / chroma_me=1 / trellis=2 / 8x8dct=1 / cqm=0 / deadzone=21,11 / fast_pskip=0 / chroma_qp_offset=-2 / threads=6 / lookahead_threads=1 / sliced_threads=0 / nr=0 / decimate=1 / interlaced=0 / bluray_compat=0 / constrained_intra=0 / bframes=8 / b_pyramid=2 / b_adapt=2 / b_bias=0 / direct=3 / weightb=1 / open_gop=0 / weightp=2 / keyint=240 / keyint_min=24 / scenecut=40 / intra_refresh=0 / rc_lookahead=50 / rc=2pass / mbtree=0 / bitrate=6619 / ratetol=2.0 / qcomp=1.00 / qpmin=0 / qpmax=51 / qpstep=4 / cplxblur=20.0 / qblur=0.5 / vbv_maxrate=38000 / vbv_bufsize=30000 / nal_hrd=none / ip_ratio=1.40 / pb_ratio=1.30 / aq=1:1.00
Color primaries : BT.709-5, BT.1361, IEC 61966-2-4, SMPTE RP177
Transfer characteristics : BT.709-5, BT.1361
Matrix coefficients : BT.709-5, BT.1361, IEC 61966-2-4 709, SMPTE RP177

Audio #1
ID : 2
Format : AC-3
Format/Info : Audio Coding 3
Mode extension : CM (complete main)
Codec ID : A_AC3
Duration : 1h 19mn
Bit rate mode : Constant
Bit rate : 640 Kbps
Channel(s) : 6 channels
Channel positions : Front: L C R, Side: L R, LFE
Sampling rate : 48.0 KHz
Bit depth : 16 bits
Stream size : 363 MiB (8%)
Title : Дубляж
Language : Russian

Audio #2
ID : 3
Format : AC-3
Format/Info : Audio Coding 3
Mode extension : CM (complete main)
Codec ID : A_AC3
Duration : 1h 19mn
Bit rate mode : Constant
Bit rate : 640 Kbps
Channel(s) : 6 channels
Channel positions : Front: L C R, Side: L R, LFE
Sampling rate : 48.0 KHz
Bit depth : 16 bits
Stream size : 363 MiB (8%)

Text #1
ID : 4
Format : UTF-8
Codec ID : S_TEXT/UTF8
Codec ID/Info : UTF-8 Plain Text
Language : Russian

Text #2
ID : 5
Format : UTF-8
Codec ID : S_TEXT/UTF8
Codec ID/Info : UTF-8 Plain Text

Menu
00:00:00.000 : en:00:00:00.000
00:04:18.300 : en:00:04:18.300
00:06:31.683 : en:00:06:31.683
00:12:32.293 : en:00:12:32.293
00:16:31.866 : en:00:16:31.866
00:22:28.472 : en:00:22:28.472
00:27:21.473 : en:00:27:21.473
00:33:22.500 : en:00:33:22.500
00:37:45.263 : en:00:37:45.263
00:40:54.077 : en:00:40:54.077
00:50:11.508 : en:00:50:11.508
00:57:39.081 : en:00:57:39.081
01:04:15.477 : en:01:04:15.477
01:09:08.311 : en:01:09:08.311
01:16:06.604 : en:01:16:06.604
01:18:44.762 : en:01:18:44.762






Релиз группы:



   Похожие торренты   Торрент   Размер 
В этой теме нет новых непрочитанных сообщений. 101 далматинец / One Hundred and One Dalmatians (1961) BDRip-AVC от 0ptimus | D, P, P2, A, L

57 | 5

2.69 ГБ

В этой теме нет новых непрочитанных сообщений. 101 Далматинец / One Hundred and One Dalmatians (1961) BDRip-AVC от olegek70

54 | 5

2.18 ГБ

В этой теме нет новых непрочитанных сообщений. 101 далматинец / One Hundred and One Dalmatians (1961) BDRip от HQCLUB

378 | 15

1.45 ГБ

В этой теме нет новых непрочитанных сообщений. 101 далматинец / One Hundred and One Dalmatians (1961) BDRip 720p от 0ptimus | D, P, P2, A, L

12 | 5

5.01 ГБ

В этой теме нет новых непрочитанных сообщений. 101 далматинец / One Hundred and One Dalmatians (1961) BDRip 1080p от R.G. HD-Films | 60 fps

296 | 12

6.25 ГБ

В этой теме нет новых непрочитанных сообщений. 101 далматинец / One Hundred and One Dalmatians (1961) BDRip 1080p от 0ptimus | D, P, P2, A, L

13 | 4

8.21 ГБ

В этой теме нет новых непрочитанных сообщений. 101 далматинец / One Hundred and One Dalmatians (1961) BDRip 720p от Leonardo and Scarabey

164 | 27

1.73 ГБ




Вы не можете начинать темы
Вы не можете отвечать на сообщения
Вы не можете редактировать свои сообщения
Вы не можете удалять свои сообщения
Вы не можете добавлять вложения

Перейти:  
Для Мосгорсуда, Роскомнадзора и рекламодателей: mosgorsud-torrent[собачка]yandex.ru
 Вход
ppkBB3cker v.2 © 2008-2014 @ PPK
[ Time : 0.043s | 15 Queries | GZIP : Off ]

cron