img image001 image001 image001 image001 image001 image001 image001 image001 image001 image001 image001 image001 image001 image001 image001

Planets Sun Sun Sun
Статистика раздачи
Автор: Снежана | Размер: 4.37 ГБ | Добавлен: 27 июл 2013
Раздают: 28    Качают: 7
Скачать торрент
Скачать торрент
Описание торрента

СообщениеДобавлено: 27 июл 2013 

101 далматинец 2: Приключения Патча в Лондоне

101 Dalmatians II: Patch's London Adventure

«A New Hero Unleashed.»




#77
Год выпуска: 2003
Страна: США
Жанр: мультфильм, семейный...
Продолжительность: 01:13:56
Перевод: Профессиональный (дублированный)
Субтитры: Russian (UTF-8), English (UTF-8)

Режиссер: Джим Каммеруд, Брайан Смит
Сценарий: Джим Каммеруд, Брайан Смит, Дэн Рут, ...
Продюсер: Кэролин Бейтс, Лесли Хью, Майкл Харриган
Композитор: Ричард Гиббс
Художник: Билл Перкинс
Монтаж: Роберт С. Бирчард, Рон Прайс

В ролях: Бэрри Боствик / Barry Bostwick (Thunderbolt, озвучка), Джейсон Александр / Jason Alexander (Lightning, озвучка), Мартин Шорт / Martin Short (Lars, озвучка), Бобби Локвуд / Bobby Lockwood (Patch, озвучка), Сьюзан Блэйксли / Susan Blakeslee (Cruella de Vil, озвучка), Сэмюэл Уэст / Samuel West (Pongo, озвучка), Морис ЛаМарш / Maurice LaMarche (Horace, озвучка), Джефф Беннетт / Jeff Bennett (Jasper, озвучка)


Описание: Миллионерша Стервелла Де Виль, чья первая попытка похитить 101 далматинца и пошить из их шкурок роскошную шубу с треском провалилась, готовит новый дьявольский план по захвату славных песиков.Она потирает руки в ожидании легкого успеха, но на пути негодяйки встают храбрый щенок Патч и его новый друг Громобой — четвероногая звезда экрана! Улицы Лондона никогда еще не видели такой заварушки: двое отважных, смекалистых псов против коварной, мерзкой, но ужасно глупой Де Виль. Бедная Стервелла! Не видать ей пятнистой шубы как своих ушей!

Премьера (мир): 21 января 2003, ...
Релиз на DVD: 18 марта 2010, «Уолт Дисней Компани СНГ», ...
Релиз на Blu-Ray: 9 апреля 2013, «Уолт Дисней Компани СНГ», ...
Рейтинг MPAA: Нет возрастных ограничений




Качество: BDRip.1080р
Формат: MKV
Видео кодек: AVC
Аудио кодеk: AC3
Видео: 1828x1080 (1.693:1), 23.976 fps, AVC, 7 204 Kbps

Аудио #1: AC3, 640 Kbps, 48.0 KHz, 6 ch (Дубляж)
Аудио #2: AC3, 640 Kbps, 48.0 KHz, 6 ch (English)





Лог:
- x264 [info]: frame I:1185 Avg QP:14.07 size:273066
- x264 [info]: frame P:34256 Avg QP:17.17 size: 72881
- x264 [info]: frame B:70697 Avg QP:18.96 size: 16474

General
Complete name : 101.dalmatinec.2.2003.BDRip.1080р.mkv
Format : Matroska
File size : 4.37 GiB
Duration : 1h 13mn
Overall bit rate : 8 468 Kbps
Encoded date : UTC 2013-06-06 13:44:36
Writing application : mkvmerge v6.1.0 ('Old Devil') built on Mar 2 2013 14:32:37
Writing library : libebml v1.3.0 + libmatroska v1.4.0

Video
ID : 1
Format : AVC
Format/Info : Advanced Video Codec
Format profile : High@L4.1
Format settings, CABAC : Yes
Format settings, ReFrames : 4 frames
Muxing mode : Container profile=Unknown@4.1
Codec ID : V_MPEG4/ISO/AVC
Duration : 1h 13mn
Bit rate : 7 204 Kbps
Width : 1 828 pixels
Height : 1 080 pixels
Display aspect ratio : 1.693
Frame rate : 23.976 fps
Color space : YUV
Chroma subsampling : 4:2:0
Bit depth : 8 bits
Scan type : Progressive
Bits/(Pixel*Frame) : 0.152
Stream size : 3.63 GiB (83%)
Writing library : x264 core 133 r2334 a3ac64b
Encoding settings : cabac=1 / ref=4 / deblock=1:0:0 / analyse=0x3:0x133 / me=umh / subme=10 / psy=1 / psy_rd=1.00:0.00 / mixed_ref=1 / me_range=32 / chroma_me=1 / trellis=2 / 8x8dct=1 / cqm=0 / deadzone=21,11 / fast_pskip=0 / chroma_qp_offset=-2 / threads=6 / lookahead_threads=1 / sliced_threads=0 / nr=0 / decimate=1 / interlaced=0 / bluray_compat=0 / constrained_intra=0 / bframes=8 / b_pyramid=2 / b_adapt=2 / b_bias=0 / direct=3 / weightb=1 / open_gop=0 / weightp=2 / keyint=240 / keyint_min=24 / scenecut=40 / intra_refresh=0 / rc_lookahead=50 / rc=2pass / mbtree=0 / bitrate=7204 / ratetol=2.0 / qcomp=1.00 / qpmin=0 / qpmax=51 / qpstep=4 / cplxblur=20.0 / qblur=0.5 / vbv_maxrate=38000 / vbv_bufsize=30000 / nal_hrd=none / ip_ratio=1.40 / pb_ratio=1.30 / aq=1:1.00
Color primaries : BT.709-5, BT.1361, IEC 61966-2-4, SMPTE RP177
Transfer characteristics : BT.709-5, BT.1361
Matrix coefficients : BT.709-5, BT.1361, IEC 61966-2-4 709, SMPTE RP177

Audio #1
ID : 2
Format : AC-3
Format/Info : Audio Coding 3
Mode extension : CM (complete main)
Codec ID : A_AC3
Duration : 1h 13mn
Bit rate mode : Constant
Bit rate : 640 Kbps
Channel(s) : 6 channels
Channel positions : Front: L C R, Side: L R, LFE
Sampling rate : 48.0 KHz
Bit depth : 16 bits
Stream size : 338 MiB (8%)
Title : Дубляж
Language : Russian

Audio #2
ID : 3
Format : AC-3
Format/Info : Audio Coding 3
Mode extension : CM (complete main)
Codec ID : A_AC3
Duration : 1h 13mn
Bit rate mode : Constant
Bit rate : 640 Kbps
Channel(s) : 6 channels
Channel positions : Front: L C R, Side: L R, LFE
Sampling rate : 48.0 KHz
Bit depth : 16 bits
Stream size : 338 MiB (8%)

Text #1
ID : 4
Format : UTF-8
Codec ID : S_TEXT/UTF8
Codec ID/Info : UTF-8 Plain Text
Language : Russian

Text #2
ID : 5
Format : UTF-8
Codec ID : S_TEXT/UTF8
Codec ID/Info : UTF-8 Plain Text

Menu
00:00:00.000 : en:00:00:00.000
00:05:05.472 : en:00:05:05.472
00:12:00.345 : en:00:12:00.345
00:16:59.310 : en:00:16:59.310
00:23:01.672 : en:00:23:01.672
00:28:55.817 : en:00:28:55.817
00:37:15.942 : en:00:37:15.942
00:43:15.092 : en:00:43:15.092
00:49:20.541 : en:00:49:20.541
00:58:28.046 : en:00:58:28.046
01:04:56.851 : en:01:04:56.851
01:06:50.757 : en:01:06:50.757






Релиз группы:



   Похожие торренты   Торрент   Размер 
В этой теме нет новых непрочитанных сообщений. 101 далматинец 2: Приключения Патча в Лондоне / 101 Dalmatians II: Patch's London Adventure (2003) BDRip 1080p

173 | 7

6.51 ГБ

В этой теме нет новых непрочитанных сообщений. 101 далматинец 2: Приключения Патча в Лондоне / 101 Dalmatians II: Patch's London Adventure (2003) BDRip 720p

30 | 2

2.9 ГБ

В этой теме нет новых непрочитанных сообщений. 101 Далматинец 2: Приключения Патча в Лондоне / 101 Dalmatians II: Patch's London Adventure (2003) BDRip-AVC от olegek70

19 | 3

2.05 ГБ

В этой теме нет новых непрочитанных сообщений. 101 далматинец 2: Приключения Патча в Лондоне / 101 Dalmatians II: Patch's London Adventure (2003) BDRip от HQCLUB

183 | 10

1.45 ГБ

В этой теме нет новых непрочитанных сообщений. 101 далматинец 2: Приключения Патча в Лондоне / 101 Dalmatians II: Patch's London Adventure (2003) BDRip 720p от Leonardo and Scarabey

214 | 28

1.97 ГБ

В этой теме нет новых непрочитанных сообщений. 101 далматинец 2 / 101 Dalmatians II: Patch's London Adventure (2003) DVDRip-AVC

9 | 2

1.65 ГБ

В этой теме нет новых непрочитанных сообщений. 101 далматинец / One Hundred and One Dalmatians (1961) BDRip 1080р от Freeisland

113 | 10

4.38 ГБ




Вы не можете начинать темы
Вы не можете отвечать на сообщения
Вы не можете редактировать свои сообщения
Вы не можете удалять свои сообщения
Вы не можете добавлять вложения

Перейти:  
Для Мосгорсуда, Роскомнадзора и рекламодателей: mosgorsud-torrent[собачка]yandex.ru
 Вход
ppkBB3cker v.2 © 2008-2014 @ PPK
[ Time : 0.044s | 15 Queries | GZIP : Off ]

Торрент трекер RUTOR.IN, Не можете зайти на rutor.org? Какой новый адрес рутор? Какое зеркало рутор? Не работает rutor.org и зеркала? Тогда наш торрент специально для вас. Rutor.in неофициальное зеркало rutor. В случае если у Вас заблокирован rutor или вдруг Вы не можете на него зайти, то Вы без труда сможете скачать бесплатно и без рекламы последние новинки кино, игр, сериалов и прочего у нас, на Rutor.in. Не нужно использовать прокси, чтобы зайти на рутор, достаточно воспользоваться нашим ресурсом. Все новые фильмы, игры, сериалы, книги и музыка за 2013 и 2014 годы через торрент бесплатно. Скачивайте фильмы в хорошем качестве, игры для пк, xbox, playstation без регистрации. У нас вы найдете новые Зарубежные сериалы и Русские сериалы 2013, 2014, 2015 годов. Оставайтесь с нами, качайте любимые фильмы, игры, сериалы, книги и музыку.
cron