img image001 image001 image001 image001 image001 image001 image001 image001 image001 image001 image001 image001 image001 image001 image001

Planets Sun Sun Sun
Статистика раздачи
Автор: Снежана | Размер: 1.61 ГБ | Добавлен: 27 июл 2013
Раздают: 46    Качают: 10
Скачать торрент
Скачать торрент
Описание торрента

СообщениеДобавлено: 27 июл 2013 

#77

Информация о фильме
Название: Похождения императора
Оригинальное название: The Emperor's New Groove
Год выпуска: 2000
Жанр: Мультфильм, фэнтези, комедия, приключения, семейный
Режиссер: Марк Диндал
В ролях: Дэвид Спейд, Джон Гудмен, Ита Китт, Патрик Варбертон, Уэнди Мэлик, Стивен Андерсон, Эли Расселл Линэц, Боб Берген, Роджер Бампасс

О фильме: Как и положено царственной особе, император Куско - очень занятой человек. Но последнее его занятие грозит обернуться большими неприятностями: правитель решил построить для себя водный парк, предварительно снеся одну из деревень королевства. Этот план непременно бы воплотился в жизнь, если бы неприятность не произошла уже с самим императором: недруги превратили его в ламу! Но напасти на этом не закончились: единственным человеком, который мог помочь императору вернуться на трон и в собственное тело, оказывается житель деревни, обреченной на снос. Дорога домой для Куско обещает быть очень долгой.


Страна: США
Студия: Walt Disney Feature Animation, Walt Disney Pictures
Продолжительность: 01:18:35
Перевод: Дублированный, авторский одноголосый

Файл
Качество: BDRip (AVC)
Видео: MPEG-4 AVC, 1838 Кбит/c, 968x576, 23.976 кадр/c
Аудио #1: Русский (АС3, 6 ch, 448 Кбит/c) / Дубляж
Аудио #2: Русский (АС3, 2 ch, 192 Кбит/c) / Славянин
Аудио #3: Английский (АС3, 6 ch, 448 Кбит/c)
Субтитры: Русские, английские

Семпл




Общее
Уникальный идентификатор : 220567811946520090326323558428314902577 (0xA5EFD0BCB74B80F7A3C270C3A5632031)
Полное имя : D:Mои раздачиPohozhdenie.imperatora.2000.BDRip.(AVC)-MediaClub.mkv
Формат : Matroska
Версия формата : Version 2
Размер файла : 1,61 Гбайт
Продолжительность : 1 ч. 18 м.
Общий поток : 2924 Кбит/сек
Название фильма : Похождения императора (MediaClub-kaspr)
Дата кодирования : UTC 2013-06-06 16:54:12
Программа кодирования : mkvmerge v5.7.0 ('The Whirlwind') built on Aug 7 2012 14:11:40
Библиотека кодирования : libebml v1.2.3 + libmatroska v1.3.0

Видео
Идентификатор : 1
Формат : AVC
Формат/Информация : Advanced Video Codec
Профиль формата : High@L4.1
Параметр CABAC формата : Да
Параметр ReFrames формата : 9 кадров
Идентификатор кодека : V_MPEG4/ISO/AVC
Продолжительность : 1 ч. 18 м.
Битрейт : 1838 Кбит/сек
Ширина : 968 пикселей
Высота : 576 пикселей
Соотношение сторон : 1,681
Режим частоты кадров : Постоянный
Частота кадров : 23,976 кадра/сек
Цветовое пространство : YUV
Субдискретизация насыщенности : 4:2:0
Битовая глубина : 8 бит
Тип развёртки : Прогрессивная
Бит/(Пиксели*Кадры) : 0.137
Размер потока : 999 Мбайт (61%)
Заголовок : Похождения императора (MediaClub-kaspr)
Библиотека кодирования : x264 core 130 r2273 b3065e6
Настройки программы : cabac=1 / ref=9 / deblock=1:-3:-3 / analyse=0x3:0x133 / me=umh / subme=11 / psy=1 / psy_rd=1.00:0.10 / mixed_ref=1 / me_range=32 / chroma_me=1 / trellis=2 / 8x8dct=1 / cqm=0 / deadzone=21,11 / fast_pskip=0 / chroma_qp_offset=-3 / threads=12 / lookahead_threads=3 / sliced_threads=0 / nr=0 / decimate=0 / interlaced=0 / bluray_compat=0 / constrained_intra=0 / bframes=10 / b_pyramid=2 / b_adapt=2 / b_bias=0 / direct=3 / weightb=1 / open_gop=0 / weightp=2 / keyint=240 / keyint_min=22 / scenecut=40 / intra_refresh=0 / rc=2pass / mbtree=0 / bitrate=1838 / ratetol=1.0 / qcomp=0.60 / qpmin=0 / qpmax=69 / qpstep=4 / cplxblur=20.0 / qblur=0.5 / ip_ratio=1.40 / pb_ratio=1.30 / aq=1:1.00
Default : Да
Forced : Да

Аудио #1
Идентификатор : 2
Формат : AC-3
Формат/Информация : Audio Coding 3
Расширение режима : CM (complete main)
Параметр Endianness формата : Big
Идентификатор кодека : A_AC3
Продолжительность : 1 ч. 18 м.
Вид битрейта : Постоянный
Битрейт : 448 Кбит/сек
Каналы : 6 каналов
Расположение каналов : Front: L C R, Side: L R, LFE
Частота : 48,0 КГц
Битовая глубина : 16 бит
Метод сжатия : С потерями
Размер потока : 252 Мбайт (15%)
Заголовок : Дубляж
Язык : Russian
Default : Да
Forced : Да

Аудио #2
Идентификатор : 3
Формат : AC-3
Формат/Информация : Audio Coding 3
Расширение режима : CM (complete main)
Параметр Endianness формата : Big
Идентификатор кодека : A_AC3
Продолжительность : 1 ч. 18 м.
Вид битрейта : Постоянный
Битрейт : 192 Кбит/сек
Каналы : 2 канала
Расположение каналов : Front: L R
Частота : 48,0 КГц
Битовая глубина : 16 бит
Метод сжатия : С потерями
Размер потока : 108 Мбайт (7%)
Заголовок : Славянин
Язык : Russian
Default : Нет
Forced : Нет

Аудио #3
Идентификатор : 4
Формат : AC-3
Формат/Информация : Audio Coding 3
Расширение режима : CM (complete main)
Параметр Endianness формата : Big
Идентификатор кодека : A_AC3
Продолжительность : 1 ч. 18 м.
Вид битрейта : Постоянный
Битрейт : 448 Кбит/сек
Каналы : 6 каналов
Расположение каналов : Front: L C R, Side: L R, LFE
Частота : 48,0 КГц
Битовая глубина : 16 бит
Метод сжатия : С потерями
Размер потока : 252 Мбайт (15%)
Заголовок : Оригинал
Язык : English
Default : Нет
Forced : Нет

Текст #1
Идентификатор : 5
Формат : UTF-8
Идентификатор кодека : S_TEXT/UTF8
Идентификатор кодека/Информация : UTF-8 Plain Text
Язык : Russian
Default : Нет
Forced : Нет

Текст #2
Идентификатор : 6
Формат : UTF-8
Идентификатор кодека : S_TEXT/UTF8
Идентификатор кодека/Информация : UTF-8 Plain Text
Язык : English
Default : Нет
Forced : Нет

Меню
00:00:00.000 : en:Chapter 01
00:01:24.250 : en:Chapter 02
00:03:57.320 : en:Chapter 03
00:04:27.517 : en:Chapter 04
00:05:29.495 : en:Chapter 05
00:08:08.488 : en:Chapter 06
00:10:36.135 : en:Chapter 07
00:11:30.439 : en:Chapter 08
00:12:50.644 : en:Chapter 09
00:17:10.029 : en:Chapter 10
00:20:11.418 : en:Chapter 11
00:23:28.490 : en:Chapter 12
00:27:06.958 : en:Chapter 13
00:29:12.667 : en:Chapter 14
00:34:02.957 : en:Chapter 15
00:35:49.522 : en:Chapter 16
00:36:30.313 : en:Chapter 17
00:38:23.134 : en:Chapter 18
00:43:54.381 : en:Chapter 19
00:46:32.331 : en:Chapter 20
00:53:05.557 : en:Chapter 21
00:54:08.912 : en:Chapter 22
00:55:06.303 : en:Chapter 23
00:57:25.191 : en:Chapter 24
01:00:41.554 : en:Chapter 25
01:01:44.534 : en:Chapter 26
01:09:54.899 : en:Chapter 27
01:12:16.832 : en:Chapter 28
01:18:23.949 : en:Chapter 29


Релиз от:



   Похожие торренты   Торрент   Размер 
В этой теме нет новых непрочитанных сообщений. Похождения императора. Дилогия / The Emperor's New Groove. Kronk's New Groove (2000, 2005) BDRip от RG Jolly Roger

94 | 19

2.17 ГБ

В этой теме нет новых непрочитанных сообщений. Похождения императора / The Emperor's New Groove (2000) BDRip от HQCLUB

208 | 20

1.45 ГБ

В этой теме нет новых непрочитанных сообщений. Похождения императора / The Emperor's New Groove (2000) BDRip 720p от leonardo 59

113 | 3

1.8 ГБ

В этой теме нет новых непрочитанных сообщений. Похождения императора / The Emperor's New Groove (2000) BDRip 1080p от Freeisland

91 | 15

4.37 ГБ

В этой теме нет новых непрочитанных сообщений. Похождения императора / The Emperor's New Groove (2000) DVDRip

152 | 27

1.37 ГБ

В этой теме нет новых непрочитанных сообщений. Похождения императора 2: Приключения Кронка / The Emperor's New Groove 2: Kronk's New Groove (2005) BDRip от HQCLUB

158 | 12

1.45 ГБ

В этой теме нет новых непрочитанных сообщений. Похождения императора 2: Приключения Кронка / Kronk's New Groove (2005) BDRip-AVC от MediaClub | D

36 | 5

1.46 ГБ




Вы не можете начинать темы
Вы не можете отвечать на сообщения
Вы не можете редактировать свои сообщения
Вы не можете удалять свои сообщения
Вы не можете добавлять вложения

Перейти:  
Для Мосгорсуда, Роскомнадзора и рекламодателей: mosgorsud-torrent[собачка]yandex.ru
 Вход
ppkBB3cker v.2 © 2008-2014 @ PPK
[ Time : 0.027s | 16 Queries | GZIP : On ]

Торрент трекер RUTOR.IN, Не можете зайти на rutor.org? Какой новый адрес рутор? Какое зеркало рутор? Не работает rutor.org и зеркала? Тогда наш торрент специально для вас. Rutor.in неофициальное зеркало rutor. В случае если у Вас заблокирован rutor или вдруг Вы не можете на него зайти, то Вы без труда сможете скачать бесплатно и без рекламы последние новинки кино, игр, сериалов и прочего у нас, на Rutor.in. Не нужно использовать прокси, чтобы зайти на рутор, достаточно воспользоваться нашим ресурсом. Все новые фильмы, игры, сериалы, книги и музыка за 2013 и 2014 годы через торрент бесплатно. Скачивайте фильмы в хорошем качестве, игры для пк, xbox, playstation без регистрации. У нас вы найдете новые Зарубежные сериалы и Русские сериалы 2013, 2014, 2015 годов. Оставайтесь с нами, качайте любимые фильмы, игры, сериалы, книги и музыку.