img image001 image001 image001 image001 image001 image001 image001 image001 image001 image001 image001 image001 image001 image001 image001

Planets Sun Sun Sun
Статистика раздачи
Автор: Снежана | Размер: 1.46 ГБ | Добавлен: 27 июл 2013
Раздают: 36    Качают: 5
Скачать торрент
Скачать торрент
Описание торрента

СообщениеДобавлено: 27 июл 2013 

#77

Информация о фильме
Название: Похождения императора 2: Приключения Кронка
Оригинальное название: The Emperor's New Groove 2: Kronk's New Groove
Год выпуска: 2005
Жанр: Мультфильм, мюзикл, мелодрама, комедия, семейный
Режиссер: Сауль Эндрю Блинкофф, Эллиот М. Бур, Робин Стил
В ролях: Патрик Варбертон, Трэйси Уллмэн, Ита Китт, Дэвид Спейд, Джон Гудмен, Уэнди Мэлик, Джон Махони, Джон Фидлер, Джефф Беннетт, Боб Берген

О фильме: Не успели закончиться приключения Пачи и Императора Куско, как симпатяга Кронк, бывший слуга Измы, начал новую счастливую жизнь в качестве шеф-повара в своей собственной закусочной. Однако приключения начинаются с получением лама-граммы, согласно которой, его отец собирается прибыть с визитом. Но, не успев сообразить что происходит, Кронк умудряется состряпать уйму неприятностей, связавшись с хитрой колдуньей Измой, чтобы с помощью волшебства осветить себя ореолом успеха и процветания во время визита Папы. После целого ряда ошибок и грандиозного сырного взрыва в ресторане, проблемы кажутся неразрешимыми. Но с помощью друзей — как новых, так и старых — Кронк узнает, что любые трудности в жизни преодолимы.


Страна: США
Студия: Toon City, Walt Disney Pictures
Продолжительность: 01:15:00
Перевод: Дублированный

Файл
Качество: BDRip (AVC)
Видео: MPEG-4 AVC, 1890 Кбит/c, 1024x576, 23.976 кадр/c
Аудио #1: Русский (AC3, 6 ch, 448 Кбит/c)
Аудио #2: Английский (AC3, 6 ch, 448 Кбит/c)
Субтитры: Русские, английские

Семпл




---[NoImage] x264 [info]: frame I:1165 Avg QP:13.20 size: 78484
---[NoImage] x264 [info]: frame P:29035 Avg QP:17.16 size: 19114
---[NoImage] x264 [info]: frame B:77558 Avg QP:18.27 size: 5372
_______________________________________________________________________
Общее
Уникальный идентификатор : 250332101966594084091398493351602946075 (0xBC543589030E4740ABEE5B975AB2001B)
Полное имя : D:Mои раздачиPohozhdenie.imperatora.2.Prikluchenie.Kronka.2005.BDRip.(AVC)-MediaClub.mkv
Формат : Matroska
Версия формата : Version 2
Размер файла : 1,46 Гбайт
Продолжительность : 1 ч. 15 м.
Общий поток : 2788 Кбит/сек
Название фильма : Похождения императора-2 (MediaClub-kaspr)
Дата кодирования : UTC 2013-06-07 05:34:23
Программа кодирования : mkvmerge v5.7.0 ('The Whirlwind') built on Aug 7 2012 14:11:40
Библиотека кодирования : libebml v1.2.3 + libmatroska v1.3.0

Видео
Идентификатор : 1
Формат : AVC
Формат/Информация : Advanced Video Codec
Профиль формата : High@L4.1
Параметр CABAC формата : Да
Параметр ReFrames формата : 9 кадров
Идентификатор кодека : V_MPEG4/ISO/AVC
Продолжительность : 1 ч. 15 м.
Битрейт : 1890 Кбит/сек
Ширина : 1024 пикселя
Высота : 576 пикселей
Соотношение сторон : 16:9
Режим частоты кадров : Постоянный
Частота кадров : 23,976 кадра/сек
Цветовое пространство : YUV
Субдискретизация насыщенности : 4:2:0
Битовая глубина : 8 бит
Тип развёртки : Прогрессивная
Бит/(Пиксели*Кадры) : 0.134
Размер потока : 985 Мбайт (66%)
Заголовок : Похождения императора-2 (MediaClub-kaspr)
Библиотека кодирования : x264 core 130 r2273 b3065e6
Настройки программы : cabac=1 / ref=9 / deblock=1:-3:-3 / analyse=0x3:0x133 / me=umh / subme=11 / psy=1 / psy_rd=1.00:0.10 / mixed_ref=1 / me_range=32 / chroma_me=1 / trellis=2 / 8x8dct=1 / cqm=0 / deadzone=21,11 / fast_pskip=0 / chroma_qp_offset=-3 / threads=12 / lookahead_threads=3 / sliced_threads=0 / nr=0 / decimate=0 / interlaced=0 / bluray_compat=0 / constrained_intra=0 / bframes=10 / b_pyramid=2 / b_adapt=2 / b_bias=0 / direct=3 / weightb=1 / open_gop=0 / weightp=2 / keyint=240 / keyint_min=22 / scenecut=40 / intra_refresh=0 / rc=2pass / mbtree=0 / bitrate=1890 / ratetol=1.0 / qcomp=0.60 / qpmin=0 / qpmax=69 / qpstep=4 / cplxblur=20.0 / qblur=0.5 / ip_ratio=1.40 / pb_ratio=1.30 / aq=1:1.00
Default : Да
Forced : Да

Аудио #1
Идентификатор : 2
Формат : AC-3
Формат/Информация : Audio Coding 3
Расширение режима : CM (complete main)
Параметр Endianness формата : Big
Идентификатор кодека : A_AC3
Продолжительность : 1 ч. 15 м.
Вид битрейта : Постоянный
Битрейт : 448 Кбит/сек
Каналы : 6 каналов
Расположение каналов : Front: L C R, Side: L R, LFE
Частота : 48,0 КГц
Битовая глубина : 16 бит
Метод сжатия : С потерями
Размер потока : 240 Мбайт (16%)
Заголовок : Дубляж
Язык : Russian
Default : Да
Forced : Да

Аудио #2
Идентификатор : 3
Формат : AC-3
Формат/Информация : Audio Coding 3
Расширение режима : CM (complete main)
Параметр Endianness формата : Big
Идентификатор кодека : A_AC3
Продолжительность : 1 ч. 15 м.
Вид битрейта : Постоянный
Битрейт : 448 Кбит/сек
Каналы : 6 каналов
Расположение каналов : Front: L C R, Side: L R, LFE
Частота : 48,0 КГц
Битовая глубина : 16 бит
Метод сжатия : С потерями
Размер потока : 240 Мбайт (16%)
Заголовок : Оригинал
Язык : English
Default : Нет
Forced : Нет

Текст #1
Идентификатор : 4
Формат : UTF-8
Идентификатор кодека : S_TEXT/UTF8
Идентификатор кодека/Информация : UTF-8 Plain Text
Язык : Russian
Default : Нет
Forced : Нет

Текст #2
Идентификатор : 5
Формат : UTF-8
Идентификатор кодека : S_TEXT/UTF8
Идентификатор кодека/Информация : UTF-8 Plain Text
Язык : English
Default : Нет
Forced : Нет

Меню
00:00:00.000 : en:Chapter 01
00:05:40.798 : en:Chapter 02
00:07:55.725 : en:Chapter 03
00:09:27.066 : en:Chapter 04
00:12:36.005 : en:Chapter 05
00:17:00.978 : en:Chapter 06
00:20:21.970 : en:Chapter 07
00:24:55.410 : en:Chapter 08
00:28:34.754 : en:Chapter 09
00:30:59.691 : en:Chapter 10
00:34:04.709 : en:Chapter 11
00:39:20.358 : en:Chapter 12
00:43:41.869 : en:Chapter 13
00:49:21.833 : en:Chapter 14
00:55:05.010 : en:Chapter 15
00:57:28.653 : en:Chapter 16
01:02:39.005 : en:Chapter 17
01:02:52.727 : en:Chapter 18
01:05:37.683 : en:Chapter 19
01:07:38.054 : en:Chapter 20


Релиз от:



   Похожие торренты   Торрент   Размер 
В этой теме нет новых непрочитанных сообщений. Похождения императора 2: Приключения Кронка / The Emperor's New Groove 2: Kronk's New Groove (2005) BDRip от HQCLUB

158 | 12

1.45 ГБ

В этой теме нет новых непрочитанных сообщений. Похождения императора 2: Приключения Кронка / Kronk's New Groove (2005) BDRip 720p от leonardo 59

18 | 7

1.79 ГБ

В этой теме нет новых непрочитанных сообщений. Похождения императора 2: Приключения Кронка / Kronk's New Groove (2005) BDRip 1080p от Freeisland

24 | 8

4.37 ГБ

В этой теме нет новых непрочитанных сообщений. Похождения императора 2: Приключения Кронка / Kronk's New Groove (2005) DVDRip

33 | 4

702.09 МБ

В этой теме нет новых непрочитанных сообщений. Похождения императора 2: Приключения Кронка / Kronk's New Groove (2005) DVDRip

20 | 2

1.37 ГБ

В этой теме нет новых непрочитанных сообщений. Похождения императора. Дилогия / The Emperor's New Groove. Kronk's New Groove (2000, 2005) BDRip от RG Jolly Roger

94 | 19

2.17 ГБ

В этой теме нет новых непрочитанных сообщений. Похождения императора / The Emperor's New Groove (2000) BDRip-AVC от MediaClub | D, A

46 | 10

1.61 ГБ




Вы не можете начинать темы
Вы не можете отвечать на сообщения
Вы не можете редактировать свои сообщения
Вы не можете удалять свои сообщения
Вы не можете добавлять вложения

Перейти:  
Для Мосгорсуда, Роскомнадзора и рекламодателей: mosgorsud-torrent[собачка]yandex.ru
 Вход
ppkBB3cker v.2 © 2008-2014 @ PPK
[ Time : 0.039s | 15 Queries | GZIP : Off ]

cron