img image001 image001 image001 image001 image001 image001 image001 image001 image001 image001 image001 image001 image001 image001 image001

Planets Sun Sun Sun
Статистика раздачи
Автор: Снежана | Размер: 1.46 ГБ | Добавлен: 27 июл 2013
Раздают: 10    Качают: 4
Скачать торрент
Скачать торрент
Описание торрента

СообщениеДобавлено: 27 июл 2013 

#77

Информация о фильме
Название: Поп Америка
Оригинальное название: American Pop
Год выхода: 1981
Жанр: мультфильм, драма, музыка
Режиссер: Ральф Бакши / Ralph Bakshi
В ролях:
Рон Томпсон,Мьюз Смолл,Джерри Холлэнд,Лиза Джейн Перски,Джеффри Липпа,Роз Келли,
Фрэнк ДеКова,Ричард Сингер,Эльза Рэйвен,Бен Фроммер.

О фильме:
Драматическая история четырёх поколений еврейской семьи музыкантов из России, показанная параллельно с историей Американской популярной музыки 20-го столетия, в сопровождении Боба Дилана, Лу Рида, Фила Силверса и др.
Format : AVI
Format/Info : Audio Video Interleave
File size : 1.46 GiB
Duration : 1h 35mn
Overall bit rate : 2 186 Kbps
Writing application : VirtualDubMod 1.5.10.3 | www.virtualdub-fr.org || (build 2550/release)
Writing library : VirtualDubMod build 2550/release

Video
ID : 0
Format : MPEG-4 Visual
Format profile : Advanced Simple@L5
Format settings, BVOP : 2
Format settings, QPel : No
Format settings, GMC : No warppoints
Format settings, Matrix : Custom
Codec ID : XVID
Codec ID/Hint : XviD
Duration : 1h 35mn
Bit rate : 1 787 Kbps
Width : 640 pixels
Height : 480 pixels
Display aspect ratio : 4:3
Frame rate : 23.976 fps
Color space : YUV
Chroma subsampling : 4:2:0
Bit depth : 8 bits
Scan type : Progressive
Compression mode : Lossy
Bits/(Pixel*Frame) : 0.243
Stream size : 1.20 GiB (82%)
Writing library : XviD 65

Audio #1
ID : 1
Format : AC-3
Format/Info : Audio Coding 3
Mode extension : CM (complete main)
Format settings, Endianness : Big
Codec ID : 2000
Duration : 1h 35mn
Bit rate mode : Constant
Bit rate : 192 Kbps
Channel(s) : 2 channels
Channel positions : Front: L R
Sampling rate : 48.0 KHz
Bit depth : 16 bits
Compression mode : Lossy
Stream size : 131 MiB (9%)
Alignment : Split accross interleaves
Interleave, duration : 42 ms (1.00 video frame)
Interleave, preload duration : 500 ms

Audio #2
ID : 2
Format : AC-3
Format/Info : Audio Coding 3
Format profile : Dolby Digital
Mode extension : CM (complete main)
Format settings, Endianness : Big
Codec ID : 2000
Duration : 1h 35mn
Bit rate mode : Constant
Bit rate : 192 Kbps
Channel(s) : 2 channels
Channel positions : Front: L R
Sampling rate : 48.0 KHz
Bit depth : 16 bits
Compression mode : Lossy
Stream size : 131 MiB (9%)
Alignment : Split accross interleaves
Interleave, duration : 42 ms (1.00 video frame)
Interleave, preload duration : 500 ms


Страна: США
Продолжительность: 01:35:38
Перевод: Дублированный перевод (Дубляж)

Файл
Кодек: Xvid
Качество: DVDRip
Видео: Xvid 640x480 23.976fps [Video] Bit rate:1 787 Kbps
Звук: Dolby AC3 48000Hz stereo 192kbps [Audio]




   Похожие торренты   Торрент   Размер 
В этой теме нет новых непрочитанных сообщений. Поп Америка / American Pop (1981) DVD5

2 | 2

3.89 ГБ

В этой теме нет новых непрочитанных сообщений. Поп Америка / American Pop (1981) WEB-DLRip от KinoRay

55 | 4

1.22 ГБ

В этой теме нет новых непрочитанных сообщений. Отель «Америка» / Hôtel des Amériques (1981) DVDRip

3 | 3

1.37 ГБ

В этой теме нет новых непрочитанных сообщений. Мир Наизнанку. Латинская Америка / Світ навиворіт. Латинська Америка [S06] (2015) HDTVRip 1080p

36 | 43

19.6 ГБ

В этой теме нет новых непрочитанных сообщений. Американский оборотень в Лондоне / An American Werewolf in London (1981) BDRip | P, А

37 | 6

744.73 МБ

В этой теме нет новых непрочитанных сообщений. Американский оборотень в Лондоне / An American Werewolf in London (1981) BDRip-AVC от MediaClub | P, A

59 | 8

3.12 ГБ

В этой теме нет новых непрочитанных сообщений. Американский оборотень в Лондоне / An American Werewolf in London (1981) BDRip 1080p | P, 2A

13 | 24

6.84 ГБ




Вы не можете начинать темы
Вы не можете отвечать на сообщения
Вы не можете редактировать свои сообщения
Вы не можете удалять свои сообщения
Вы не можете добавлять вложения

Перейти:  
Для Мосгорсуда, Роскомнадзора и рекламодателей: mosgorsud-torrent[собачка]yandex.ru
 Вход
ppkBB3cker v.2 © 2008-2014 @ PPK
[ Time : 0.017s | 15 Queries | GZIP : On ]

Торрент трекер RUTOR.IN, Не можете зайти на rutor.org? Какой новый адрес рутор? Какое зеркало рутор? Не работает rutor.org и зеркала? Тогда наш торрент специально для вас. Rutor.in неофициальное зеркало rutor. В случае если у Вас заблокирован rutor или вдруг Вы не можете на него зайти, то Вы без труда сможете скачать бесплатно и без рекламы последние новинки кино, игр, сериалов и прочего у нас, на Rutor.in. Не нужно использовать прокси, чтобы зайти на рутор, достаточно воспользоваться нашим ресурсом. Все новые фильмы, игры, сериалы, книги и музыка за 2013 и 2014 годы через торрент бесплатно. Скачивайте фильмы в хорошем качестве, игры для пк, xbox, playstation без регистрации. У нас вы найдете новые Зарубежные сериалы и Русские сериалы 2013, 2014, 2015 годов. Оставайтесь с нами, качайте любимые фильмы, игры, сериалы, книги и музыку.