img image001 image001 image001 image001 image001 image001 image001 image001 image001 image001 image001 image001 image001 image001 image001

Planets Sun Sun Sun
Статистика раздачи
Автор: Снежана | Размер: 1.74 ГБ | Добавлен: 27 июл 2013
Раздают: 136    Качают: 33
Скачать торрент
Скачать торрент
Описание торрента

СообщениеДобавлено: 27 июл 2013 

#77

Информация о фильме
Название: Гномео и Джульетта
Оригинальное название: Gnomeo & Juliet
Год выхода: 2011
Жанр: Мультфильм, фэнтези, мелодрама, комедия, приключения, семейный
Режиссер: Келли Эсбёри
В ролях: Джеймс МакЭвой, Эмили Блант, Эшли Дженсен, Майкл Кейн, Мэтт Лукас, Джим Каммингс, Мэгги Смит, Джейсон Стэйтем, Оззи Осборн, Стивен Мерчант

О фильме:
Гномы тоже имею право на любовь, право на трагедию. Новая вариация бессмертной пьесы Уильяма Шекспира, повествующая о двух влюбленных, из враждующих кланов садовых и домашних гномов. Веселая интерпретация пьесы Уильяма Шекспира, в которой противоборствуют семьи садовых гномов и гномов домашних.



Страна: США, Великобритания, Touchstone Pictures, Rocket Pictures, Miramax Films
Продолжительность: 01:23:50
Перевод: Дублированный
Субтитры: Русские, английские
Дата релиза: 07.06.2013

Файл
Кодек: H.264
Качество: BDRip (AVC)
Видео: MPEG-4 AVC, 2199 Кбит/с, 1024x552
Звук: Русский, английский (AC3, 6 ch, 384 Кбит/с)

Общее
Уникальный идентификатор : 233621111426761980031703369119869631159 (0xAFC1CA17058C1B9DA44B90D7D26AFAB7)
Полное имя : D:Gnomeo.i.Dzhulieta.2011.x264.BDRip.(AVC).ExKinoRay.mkv
Формат : Matroska
Размер файла : 1,74 Гбайт
Продолжительность : 1 ч. 23 м.
Общий поток : 2969 Кбит/сек
Название фильма : Gnomeo.i.Dzhulieta.2011.x264.BDRip.(AVC).ExKinoRay
Дата кодирования : UTC 2013-06-07 15:19:15
Программа кодирования : mkvmerge v4.0.0 ('The Stars were mine') сборка от Jun 6 2010 16:18:42
Библиотека кодирования : libebml v1.0.0 + libmatroska v1.0.0

Видео
Идентификатор : 1
Формат : AVC
Формат/Информация : Advanced Video Codec
Профиль формата : High@L4.1
Параметр CABAC формата : Да
Параметр ReFrames формата : 8 кадров
Идентификатор кодека : V_MPEG4/ISO/AVC
Продолжительность : 1 ч. 23 м.
Битрейт : 2199 Кбит/сек
Ширина : 1024 пикс.
Высота : 552 пикс.
Соотношение сторон : 1,855
Частота кадров : 23,976 кадр/сек
Цветовое пространство : YUV
Подвыборка цветности : 4:2:0
Битовая глубина : 8 бит
Тип развёртки : Прогрессивная
Бит/(Пиксели*Кадры) : 0.162
Размер потока : 1,25 Гбайт (72%)
Заголовок : Rip by Enigma-Vladislav71
Библиотека кодирования : x264 core 129 r2245 bc13772
Настройки программы : cabac=1 / ref=8 / deblock=1:-2:-2 / analyse=0x3:0x133 / me=umh / subme=11 / psy=1 / psy_rd=1.00:0.00 / mixed_ref=1 / me_range=48 / chroma_me=1 / trellis=2 / 8x8dct=1 / cqm=0 / deadzone=21,11 / fast_pskip=0 / chroma_qp_offset=-2 / threads=3 / lookahead_threads=1 / sliced_threads=0 / nr=0 / decimate=0 / interlaced=0 / bluray_compat=0 / constrained_intra=0 / bframes=8 / b_pyramid=2 / b_adapt=2 / b_bias=0 / direct=3 / weightb=1 / open_gop=0 / weightp=2 / keyint=240 / keyint_min=23 / scenecut=40 / intra_refresh=0 / rc_lookahead=40 / rc=2pass / mbtree=1 / bitrate=2199 / ratetol=1.0 / qcomp=0.60 / qpmin=10 / qpmax=51 / qpstep=4 / cplxblur=20.0 / qblur=0.5 / ip_ratio=1.40 / aq=2:1.00
Язык : English

Аудио #1
Идентификатор : 2
Формат : AC-3
Формат/Информация : Audio Coding 3
Расширение режима : CM (complete main)
Идентификатор кодека : A_AC3
Продолжительность : 1 ч. 23 м.
Вид битрейта : Постоянный
Битрейт : 384 Кбит/сек
Каналы : 6 каналов
Расположение каналов : Front: L C R, Side: L R, LFE
Частота : 48,0 КГц
Битовая глубина : 16 бит
Метод сжатия : С потерями
Размер потока : 230 Мбайт (13%)
Язык : Russian

Аудио #2
Идентификатор : 3
Формат : AC-3
Формат/Информация : Audio Coding 3
Расширение режима : CM (complete main)
Идентификатор кодека : A_AC3
Продолжительность : 1 ч. 23 м.
Вид битрейта : Постоянный
Битрейт : 384 Кбит/сек
Каналы : 6 каналов
Расположение каналов : Front: L C R, Side: L R, LFE
Частота : 48,0 КГц
Битовая глубина : 16 бит
Метод сжатия : С потерями
Размер потока : 230 Мбайт (13%)
Язык : English

Текст #1
Идентификатор : 4
Формат : UTF-8
Идентификатор кодека : S_TEXT/UTF8
Идентификатор кодека/Информация : UTF-8 Plain Text
Язык : Russian

Текст #2
Идентификатор : 5
Формат : UTF-8
Идентификатор кодека : S_TEXT/UTF8
Идентификатор кодека/Информация : UTF-8 Plain Text
Язык : English

Меню
00:00:00.000 : en:Chapter 01
00:09:45.001 : en:Chapter 02
00:16:46.672 : en:Chapter 03
00:21:28.370 : en:Chapter 04
00:29:00.280 : en:Chapter 05
00:35:19.325 : en:Chapter 06
00:41:18.392 : en:Chapter 07
00:50:42.622 : en:Chapter 08
00:58:31.174 : en:Chapter 09
01:05:51.530 : en:Chapter 10
01:11:14.311 : en:Chapter 11
01:17:09.291 : en:Chapter 12


Семпл


Релиз от:

Авторы релиза:



   Похожие торренты   Торрент   Размер 
В этой теме нет новых непрочитанных сообщений. Гномео и Джульетта / Gnomeo & Juliet (2011) BDRip 1080i | Лицензия

3 | 3

5.73 ГБ

В этой теме нет новых непрочитанных сообщений. Гномео и Джульетта / Gnomeo & Juliet (2011) HDRip | Лицензия

24 | 7

700.46 МБ

В этой теме нет новых непрочитанных сообщений. Гномео и Джульетта / Gnomeo & Juliet (2011) BDRip от HELLYWOOD

4 | 2

1.68 ГБ

В этой теме нет новых непрочитанных сообщений. Гномео и Джульетта / Gnomeo & Juliet (2011) BDRip 1080p

87 | 7

4.38 ГБ

В этой теме нет новых непрочитанных сообщений. Гномео и Джульетта / Gnomeo and Juliet (2011) BDRip-AVC от DHT-Movies

2 | 3

2.18 ГБ

В этой теме нет новых непрочитанных сообщений. Гномео и Джульетта / Gnomeo & Juliet (2011) BDRip от HQCLUB

114 | 6

1.45 ГБ

В этой теме нет новых непрочитанных сообщений. Гномео и Джульетта / Gnomeo & Juliet (2011) BDRip от HQ-ViDEO

7 | 3

2.12 ГБ




Вы не можете начинать темы
Вы не можете отвечать на сообщения
Вы не можете редактировать свои сообщения
Вы не можете удалять свои сообщения
Вы не можете добавлять вложения

Перейти:  
Для Мосгорсуда, Роскомнадзора и рекламодателей: mosgorsud-torrent[собачка]yandex.ru
 Вход
ppkBB3cker v.2 © 2008-2014 @ PPK
[ Time : 0.033s | 14 Queries | GZIP : Off ]

Торрент трекер RUTOR.IN, Не можете зайти на rutor.org? Какой новый адрес рутор? Какое зеркало рутор? Не работает rutor.org и зеркала? Тогда наш торрент специально для вас. Rutor.in неофициальное зеркало rutor. В случае если у Вас заблокирован rutor или вдруг Вы не можете на него зайти, то Вы без труда сможете скачать бесплатно и без рекламы последние новинки кино, игр, сериалов и прочего у нас, на Rutor.in. Не нужно использовать прокси, чтобы зайти на рутор, достаточно воспользоваться нашим ресурсом. Все новые фильмы, игры, сериалы, книги и музыка за 2013 и 2014 годы через торрент бесплатно. Скачивайте фильмы в хорошем качестве, игры для пк, xbox, playstation без регистрации. У нас вы найдете новые Зарубежные сериалы и Русские сериалы 2013, 2014, 2015 годов. Оставайтесь с нами, качайте любимые фильмы, игры, сериалы, книги и музыку.