img image001 image001 image001 image001 image001 image001 image001 image001 image001 image001 image001 image001 image001 image001 image001

Planets Sun Sun Sun
Статистика раздачи
Автор: Снежана | Размер: 1.11 ГБ | Добавлен: 28 июл 2013
Раздают: 0    Качают: 2
Скачать торрент
Скачать торрент
Описание торрента

СообщениеДобавлено: 28 июл 2013 

#77

Информация о фильме

Название : Стич!
Оригинальное название : Stitch! The Mischievous Alien’s Great Adventur ( スティッチ!_いたずらエイリアンの大冒険 )

Год выхода : 2009
Страна : Япония, Корея Южная, Китай
Производство : Dr. Movie, Mad House Ltd, Moi Animation Studio, Shin Ei Animation, Tezuka Production Company Ltd, Walt Disney Television International Japan
Жанр : Мультфильм, фантастика, комедия
Режиссеры : Масами Хата, Такудзи Эндо, Han Kwang Il
Роли озвучивали : Коити Ямадера, Мотоко Кумай, Бен Дискин, Иден Ригел, Гвендолин Ео, Джесс Винфилд, Ted Biaselli, Хисако Кёда, Дейв Уиттенберг, Меган Стрэйндж

Описание : В центре сюжета мультсериала — история о веселом неугомонном инопланетянине по имени Стич. Он — результат уникального эксперимента, в котором использованы гены самых сильных и опасных существ галактики. К счастью, Стич умеет направлять разрушительную энергию в мирное русло.

Оказавшись на одном из японских островов, он встречает такую же непоседливую, как и он сам, школьницу Юну. Дружба с девочкой помогает Стичу побороть вредные привычки и совершить множество добрых поступков. Теперь, объединив усилия, неразлучная парочка способна не только навести порядок на острове, но и спасти планету от нашествия пришельцев.
Доп. информация : Сериал записан с канала "Дисней". Новые серии буду добавлять после показа на канале, в эту же тему.
Продолжительность : ~00:21:09 (серия)
Перевод : Профессиональный (полное дублирование) [ НЕВАФИЛЬМ ]
Файл

Формат видео : MPG
Качество : TVRip

Видео : MPEG Video, 720x576 (4:3), 25.000 fps, ~1519-2018 Kbps (0.146 bit/pixel)
Звук : MPEG Audio, 48.0 KHz, 2 ch, ~192 Kbps
Субтитры : нет



Порядок и номерация серий согласно этому источнику: http://ru.wikipedia.org/wiki/Список_серий_мультсериала_«Стич!»

2.01. Линк-связь (Link-age)
Хомиксвиль поймал несколько братьев Стича, сделал их снова злыми и послал поймать Стича. Бебифаер превращает всех горожан в младенцев, кроме Юны, Пенни и Стича. Линк склеивает Юну и Пенни вместе, и они вынуждены действовать вместе, что бы помочь Стичу вернуть всех в нормальное состояние.
2.02. Вонючая серия (A Stinky Episode)
Родители Пликли прилетают на Землю чтобы он выбрал себе жену и наконец женился, они привозят с собой Мр. Запашка. Выпущенный из контейнера Мр. Запашок убегает, Стич и Юна его ищут пока Мр. Запашок не взорвался и не провонял весь остров. Хомиксвиль создаёт свой вонючий эксперимент и посылает его на Землю...
2.03. Птеранодон / Покопон (Pteranodon / Pokopon)
Юна сломала брелок подаренный Сашей и скрыла от всех. Стич, Джамба и Пликли думают что брелок украла птица, и гоняются за ней по всему острову. Хомиксвиль считает что брелок ключ к безграничной силе и хочет заполучить его себе.
Юна узнаёт что её папа снова не сможет к ней приехать, но она не расстроилась. Но, неожиданно папа Юны появляется, но какой-то другой и Юна не замечая разницы проводит с ним всё время. Стич узнаёт что в облике отца Юны скрывается ёкай Покопон, и пытается открыть Юне правду, но она ему не верит...
2.04. Саша (Sasha)
В школу приходит новая ученица Саша, её мама модельер и шьёт ей одежду, что не понравилось Пени. Пени вызывает Сашу на соревнование стиля и моды, Юна защищая Сашу соглашается на соревнование...





General
Complete name : E:/2.01. Линк-связь (Link-age).mpg
Format : MPEG-PS
File size : 264 MiB
Duration : 21mn 9s
Overall bit rate : 1 746 Kbps
Writing library : (c) 1998-2010 Womble Multimedia, Inc. / MPEG Video Wizard DVD 5.0 (01/2010) / Jan 25 2010

Video #224
ID : 224 (0xE0)
Format : MPEG Video
Format version : Version 2
Format profile : Main@Main
Format settings, BVOP : No
Format settings, Matrix : Default
Duration : 21mn 9s
Bit rate mode : Variable
Bit rate : 1 519 Kbps
Nominal bit rate : 9 000 Kbps
Width : 720 pixels
Height : 576 pixels
Display aspect ratio : 4:3
Frame rate : 25.000 fps
Standard : PAL
Color space : YUV
Chroma subsampling : 4:2:0
Bit depth : 8 bits
Scan type : Progressive
Compression mode : Lossy
Bits/(Pixel*Frame) : 0.146
Stream size : 230 MiB (87%)
Writing library : (c) 1998-2010 Womble Multimedia, Inc. / MPEG Video Wizard DVD 5.0 (01/2010) / Jan 25 2010

Audio #192
ID : 192 (0xC0)
Format : MPEG Audio
Format version : Version 1
Format profile : Layer 2
Duration : 21mn 9s
Bit rate mode : Constant
Bit rate : 192 Kbps
Channel(s) : 2 channels
Sampling rate : 48.0 KHz
Compression mode : Lossy
Stream size : 29.1 MiB (11%)

http://en.wikipedia.org/wiki/Stitch! (англоязычный), http://ru.wikipedia.org/wiki/Стич! (русскоязычный)


Время раздачи с 7.00 до 00.00 по Москве ( пока не появятся другие сиды ).





   Похожие торренты   Торрент   Размер 
В этой теме нет новых непрочитанных сообщений. Стич! / Stitch! The Mischievous Alien’s Great Adventur [02x01-28 из 30] (2009) TVRip от Stranik 2.0 | D

8 | 13

8.12 ГБ

В этой теме нет новых непрочитанных сообщений. Стич! / Stitch! The Mischievous Alien’s Great Adventur [02x01-27 из 30] (2009) TVRip от Stranik 2.0 | D

7 | 7

7.78 ГБ

В этой теме нет новых непрочитанных сообщений. Стич! / Stitch! [S01] (2008) TVRip от Stranik 2.0 | D

11 | 5

5.27 ГБ

В этой теме нет новых непрочитанных сообщений. Стич! / Stitch! Best Friends Forever [S03x01-04, 08, 22, 24-30 из 30] (2010) TVRip от Stranik 2.0 | D

4 | 7

3.85 ГБ

В этой теме нет новых непрочитанных сообщений. Стич! / Stitch! Best Friends Forever [S03x01-04, 08, 22, 24-29 из 30] (2010) TVRip от Stranik 2.0 | D

10 | 6

3.51 ГБ

В этой теме нет новых непрочитанных сообщений. Лерой и Стич / Leroy & Stitch (2006) WEB-DLRip от Stranik 2.0 | D

45 | 2

1.87 ГБ

В этой теме нет новых непрочитанных сообщений. Лерой и Стич / Leroy & Stitch (2006) WEB-DL-1080p от Stranik 2.0 | D

13 | 3

3.1 ГБ




Вы не можете начинать темы
Вы не можете отвечать на сообщения
Вы не можете редактировать свои сообщения
Вы не можете удалять свои сообщения
Вы не можете добавлять вложения

Перейти:  
Для Мосгорсуда, Роскомнадзора и рекламодателей: mosgorsud-torrent[собачка]yandex.ru
 Вход
ppkBB3cker v.2 © 2008-2014 @ PPK
[ Time : 0.044s | 15 Queries | GZIP : Off ]

Торрент трекер RUTOR.IN, Не можете зайти на rutor.org? Какой новый адрес рутор? Какое зеркало рутор? Не работает rutor.org и зеркала? Тогда наш торрент специально для вас. Rutor.in неофициальное зеркало rutor. В случае если у Вас заблокирован rutor или вдруг Вы не можете на него зайти, то Вы без труда сможете скачать бесплатно и без рекламы последние новинки кино, игр, сериалов и прочего у нас, на Rutor.in. Не нужно использовать прокси, чтобы зайти на рутор, достаточно воспользоваться нашим ресурсом. Все новые фильмы, игры, сериалы, книги и музыка за 2013 и 2014 годы через торрент бесплатно. Скачивайте фильмы в хорошем качестве, игры для пк, xbox, playstation без регистрации. У нас вы найдете новые Зарубежные сериалы и Русские сериалы 2013, 2014, 2015 годов. Оставайтесь с нами, качайте любимые фильмы, игры, сериалы, книги и музыку.
cron