img image001 image001 image001 image001 image001 image001 image001 image001 image001 image001 image001 image001 image001 image001 image001

Planets Sun Sun Sun
Статистика раздачи
Автор: Снежана | Размер: 332.87 МБ | Добавлен: 27 июл 2013
Раздают: 27    Качают: 4
Скачать торрент
Скачать торрент
Описание торрента

СообщениеДобавлено: 27 июл 2013 

#77

Страна: СССР
Жанр: мультфильм, комедия, семейный
Год выпуска: 1993

Продолжительность: 00:09:36 + 00:10:11


Перевод: Не требуется

Режиссер: Вячеслав Котеночкин, Юрий Бутырин, Владимир Тарасов

В ролях: Клара Румянова (Заяц, озвучка), Анатолий Папанов (Волк, озвучка), Геннадий Хазанов (озвучка), Владимир Сошальский (Бегемот, озвучка), Игорь Христенко (озвучка)


Описание: Веселые приключения неразлучной парочки - хулигана Волка и смышленого Зайца. Любимые с детства сцены погонь, ссор и примирений, шутки и мелодии.



imdb.com: 8.40 (2 001)


Качество: DVDRip | Sample
Исходник: DVD5 (Чешский)
Контейнер: AVI
Видео 1: 624x480 (1.30:1), 25 fps, XviD build 65 ~2147 kbps avg, 0.29 bit/pixel
Видео 2: 624x480 (1.30:1), 25 fps, XviD build 65 ~2152 kbps avg, 0.29 bit/pixel
Аудио: AC3 / 2.0 / 48 kHz / 192 kbps / 16 bit

Доп. информация: исходником послужил чешский DVD, качество на голову выше чем наш от КП.



General
Complete name : E:My_ripNu,pogodi_17-18_[youtracker]17_seria.avi
Format : AVI
Format/Info : Audio Video Interleave
File size : 161 MiB
Duration : 9mn 36s
Overall bit rate : 2 350 Kbps
Movie name : 17_seria
Director : Дядя_Лёша
Writing application : VirtualDubMod 1.5.10.3 | www.virtualdub-fr.org || (build 2550/release)
Copyright : Youtracker

Video
ID : 0
Format : MPEG-4 Visual
Format profile : Advanced Simple@L5
Format settings, BVOP : 2
Format settings, QPel : No
Format settings, GMC : No warppoints
Format settings, Matrix : Custom
Codec ID : XVID
Codec ID/Hint : XviD
Duration : 9mn 36s
Bit rate : 2 148 Kbps
Width : 624 pixels
Height : 480 pixels
Display aspect ratio : 1.300
Frame rate : 25.000 fps
Color space : YUV
Chroma subsampling : 4:2:0
Bit depth : 8 bits
Scan type : Progressive
Compression mode : Lossy
Bits/(Pixel*Frame) : 0.287
Stream size : 147 MiB (91%)
Writing library : XviD 65

Audio
ID : 1
Format : AC-3
Format/Info : Audio Coding 3
Mode extension : CM (complete main)
Codec ID : 2000
Duration : 9mn 36s
Bit rate mode : Constant
Bit rate : 192 Kbps
Channel(s) : 2 channels
Channel positions : Front: L R
Sampling rate : 48.0 KHz
Bit depth : 16 bits
Compression mode : Lossy
Stream size : 13.2 MiB (8%)
Alignment : Split accross interleaves
Interleave, duration : 40 ms (1.00 video frame)
Interleave, preload duration : 500 ms


Раздача от:



   Похожие торренты   Торрент   Размер 
В этой теме нет новых непрочитанных сообщений. Ну погоди! Все 20 выпусков (1969-2006) DVDRip

1071 | 56

2.78 ГБ

В этой теме нет новых непрочитанных сообщений. Ну погоди! (1969-1981) DVDRip by NK | Бонусы

6 | 6

216.33 МБ

В этой теме нет новых непрочитанных сообщений. Ну, погоди! [01-20] (1969–2006) BDRip, DVDRip от New-Team

842 | 57

3.15 ГБ

В этой теме нет новых непрочитанных сообщений. Ну, погоди! [01-20 из 20] + бонус (1969-2006) DVDRip от MediaClub | КПК

138 | 22

959.75 МБ

В этой теме нет новых непрочитанных сообщений. Ну, погоди! [01-20 из 20] + бонус (1969-2006) DVDRip от MediaClub | КПК

3991 | 243

1.05 ГБ

В этой теме нет новых непрочитанных сообщений. Ну, погоди! [01-20] (1969–2006) BDRip-AVC, DVDRip-AVC от New-Team

2346 | 357

2.98 ГБ

В этой теме нет новых непрочитанных сообщений. Луи, король-дитя / Louis, enfant roi (1993) DVDRip от Youtracker | P

53 | 4

2.14 ГБ




Вы не можете начинать темы
Вы не можете отвечать на сообщения
Вы не можете редактировать свои сообщения
Вы не можете удалять свои сообщения
Вы не можете добавлять вложения

Перейти:  
Для Мосгорсуда, Роскомнадзора и рекламодателей: mosgorsud-torrent[собачка]yandex.ru
 Вход
ppkBB3cker v.2 © 2008-2014 @ PPK
[ Time : 0.053s | 14 Queries | GZIP : Off ]

Торрент трекер RUTOR.IN, Не можете зайти на rutor.org? Какой новый адрес рутор? Какое зеркало рутор? Не работает rutor.org и зеркала? Тогда наш торрент специально для вас. Rutor.in неофициальное зеркало rutor. В случае если у Вас заблокирован rutor или вдруг Вы не можете на него зайти, то Вы без труда сможете скачать бесплатно и без рекламы последние новинки кино, игр, сериалов и прочего у нас, на Rutor.in. Не нужно использовать прокси, чтобы зайти на рутор, достаточно воспользоваться нашим ресурсом. Все новые фильмы, игры, сериалы, книги и музыка за 2013 и 2014 годы через торрент бесплатно. Скачивайте фильмы в хорошем качестве, игры для пк, xbox, playstation без регистрации. У нас вы найдете новые Зарубежные сериалы и Русские сериалы 2013, 2014, 2015 годов. Оставайтесь с нами, качайте любимые фильмы, игры, сериалы, книги и музыку.