img image001 image001 image001 image001 image001 image001 image001 image001 image001 image001 image001 image001 image001 image001 image001

Planets Sun Sun Sun
Статистика раздачи
Автор: Снежана | Размер: 1.56 ГБ | Добавлен: 27 июл 2013, 11:36
Раздают: 114    Качают: 17
Скачать торрент
Скачать торрент
Описание торрента

СообщениеДобавлено: 27 июл 2013, 11:36 


Инфомация о фильме
Оригинальное название: Самые любимые мультики. Сборник мультфильмов. Выпуск 23
Год выхода: 1950–1984
Жанр: Мультфильмы
Режиссер: Броис Дежкин, Геннадий Филиппов, Дмитрий Бабиченко, Владимир Самосонов, Борис Аблынин, Владимир Полковников
О фильме
Цикл предназначен для самого маленького зрителя и состоит из нескольких фильмов.

01. Сердце храбреца
02. Маленький Шего
03. Старая игрушка
04. Слоненок
05. Про щенка
06. Горшочек каши
07. Крепыш
08. Лиса-строитель
09. Чудесница

Страна: СССР
Студия: Союзмультфильм
Продолжительность: 01:44:51
Перевод: не требуется
Файл
Формат: MKV
Качество: DVDRip-AVC
Видео: MPEG4 AVC 768 x 576, 25.000 fps, 1750 - 1944 Кбит/сек
Звук: AC-3, 2 ch, 192 Кб/сек
Субтитры: Нет

General
Unique ID : 179906096305584044792865803486787954381 (0x8758A75FC84CFFD3B714F592EC2A66CD)
Complete name : D:DownloadsSbornik.Multikov.23. 1950–1984.x264.DVDRip.(AVC).by.Тorrent-Хzonaлиса строитель.mkv
Format : Matroska
Format version : Version 2
File size : 138 MiB
Duration : 9mn 54s
Overall bit rate : 1 944 Kbps
Encoded date : UTC 2013-06-13 21:40:52
Writing application : mkvmerge v6.1.0 ('Old Devil') built on Mar 4 2013 09:10:42
Writing library : libebml v1.3.0 + libmatroska v1.4.0
Video
ID : 1
Format : AVC
Format/Info : Advanced Video Codec
Format profile : High@L4.1
Format settings, CABAC : Yes
Format settings, ReFrames : 6 frames
Codec ID : V_MPEG4/ISO/AVC
Duration : 9mn 54s
Bit rate : 1 750 Kbps
Width : 768 pixels
Height : 576 pixels
Display aspect ratio : 4:3
Frame rate mode : Constant
Frame rate : 25.000 fps
Color space : YUV
Chroma subsampling : 4:2:0
Bit depth : 8 bits
Scan type : Progressive
Bits/(Pixel*Frame) : 0.158
Stream size : 121 MiB (88%)
Writing library : x264 core 130 r2273 b3065e6
Encoding settings : cabac=1 / ref=6 / deblock=1:1:1 / analyse=0x3:0x111 / me=umh / subme=9 / psy=1 / psy_rd=0.40:0.00 / mixed_ref=1 / me_range=32 / chroma_me=1 / trellis=2 / 8x8dct=1 / cqm=0 / deadzone=21,11 / fast_pskip=0 / chroma_qp_offset=-2 / threads=3 / lookahead_threads=1 / sliced_threads=0 / nr=0 / decimate=1 / interlaced=0 / bluray_compat=0 / constrained_intra=0 / bframes=5 / b_pyramid=2 / b_adapt=0 / b_bias=0 / direct=1 / weightb=1 / open_gop=0 / weightp=2 / keyint=250 / keyint_min=25 / scenecut=40 / intra_refresh=0 / rc_lookahead=50 / rc=2pass / mbtree=1 / bitrate=1750 / ratetol=1.0 / qcomp=0.60 / qpmin=0 / qpmax=69 / qpstep=4 / cplxblur=20.0 / qblur=0.5 / ip_ratio=1.40 / aq=1:0.60
Default : Yes
Forced : No
Audio
ID : 2
Format : AC-3
Format/Info : Audio Coding 3
Mode extension : CM (complete main)
Format settings, Endianness : Big
Codec ID : A_AC3
Duration : 9mn 54s
Bit rate mode : Constant
Bit rate : 192 Kbps
Channel(s) : 2 channels
Channel positions : Front: L R
Sampling rate : 48.0 KHz
Bit depth : 16 bits
Compression mode : Lossy
Stream size : 13.6 MiB (10%)
Default : Yes
Forced : No



Релиз от: &



   Похожие торренты   Торрент   Размер 
В этой теме нет новых непрочитанных сообщений. Лесные сказки. Часть 3. Сборник мультфильмов (1946-1988) DVDRip-AVC от Тorrent-Хzona

191 | 21

1.27 ГБ

В этой теме нет новых непрочитанных сообщений. Самые любимые мультики. Выпуск 13 (1957-1970) DVDRip-AVC от Тorrent-Хzona

81 | 10

1.59 ГБ

В этой теме нет новых непрочитанных сообщений. Самые любимые мультики. Выпуск 11 (1950-1990) DVDRip-AVC от Тorrent-Хzona

40 | 8

1.34 ГБ

В этой теме нет новых непрочитанных сообщений. Самые любимые мультики. Выпуск 18 (1950-1983) DVDRip-AVC от Тorrent-Хzona

20 | 7

1.45 ГБ

В этой теме нет новых непрочитанных сообщений. Самые любимые мультики. Выпуск 8 (1954-1983) DVDRip-AVC от Тorrent-Хzona

112 | 10

1.63 ГБ

В этой теме нет новых непрочитанных сообщений. В гостях у лета. Сборник мультфильмов (1946-1981) DVDRip-AVC от Тorrent-Хzona

72 | 3

935.24 МБ

В этой теме нет новых непрочитанных сообщений. Лесные сказки. Часть 1. Сборник мультфильмов (1946-1953) DVDRip-AVC от Тorrent-Хzona

143 | 12

1.41 ГБ




Вы не можете начинать темы
Вы не можете отвечать на сообщения
Вы не можете редактировать свои сообщения
Вы не можете удалять свои сообщения
Вы не можете добавлять вложения

Перейти:  
Для Мосгорсуда, Роскомнадзора и рекламодателей: mosgorsud-torrent[собачка]yandex.ru
Настройки
ppkBB3cker v.2 © 2008-2014 @ PPK
[ Time : 0.014s | 15 Queries | GZIP : Off ]
CGP [Extreme] output time : 0.00015s | 0 Queries | GZIP : Off

Торрент трекер RUTOR.IN, Не можете зайти на rutor.org? Какой новый адрес рутор? Какое зеркало рутор? Не работает rutor.org и зеркала? Тогда наш торрент специально для вас. Rutor.in неофициальное зеркало rutor. В случае если у Вас заблокирован rutor или вдруг Вы не можете на него зайти, то Вы без труда сможете скачать бесплатно и без рекламы последние новинки кино, игр, сериалов и прочего у нас, на Rutor.in. Не нужно использовать прокси, чтобы зайти на рутор, достаточно воспользоваться нашим ресурсом. Все новые фильмы, игры, сериалы, книги и музыка за 2013 и 2014 годы через торрент бесплатно. Скачивайте фильмы в хорошем качестве, игры для пк, xbox, playstation без регистрации. У нас вы найдете новые Зарубежные сериалы и Русские сериалы 2013, 2014, 2015 годов. Оставайтесь с нами, качайте любимые фильмы, игры, сериалы, книги и музыку.