img image001 image001 image001 image001 image001 image001 image001 image001 image001 image001 image001 image001 image001 image001 image001

Planets Sun Sun Sun
Статистика раздачи
Автор: Снежана | Размер: 1.27 ГБ | Добавлен: 27 июл 2013
Раздают: 191    Качают: 21
Скачать торрент
Скачать торрент
Описание торрента

СообщениеДобавлено: 27 июл 2013 


Инфомация о фильме
Оригинальное название: Лесные сказки. Часть 3. Сборник мультфильмов
Год выхода: 1946-1988
Жанр: Мультфильмы
Режиссер: Александр Иванов (II), Борис Дежкин, Геннадий Филиппов, Владимир Полковников, Сергей Олифиренко, Пантелеймон Сазонов, Роман Давыдов, Михаил Каменецкий, Иван Уфимцев, Леонид Амальрик
О фильме
Цикл предназначен для самого маленького зрителя и состоит из нескольких фильмов.

1. В лесной чаще - 1954 г. Маленький непослушный барсучонок убегает от родителей. Заблудившись в лесу он не может найти дорогу домой. Заяц и семья медведей помогает барсучонку спастись от волка. Барсучонок возвращается домой научившись труду.
2. Тихая поляна - 1946 г. На тихой поляне в футбольном матче между зайцами и медведями - ничья и побеждает дружба.
3. Муравьишка-хвастунишка - 1961 г. По мотивам сказки В.Бианки "Как муравьишко домой спешил".
4. Крашеный лис - 1953 г. Мультипликационный фильм по украинской сказке Ивана Франко о том, как звери изгоняют из леса вора Лиса. Преследуемый собаками, Лис забегает в деревню. Оказавшись в комнатах еще недостроенного дома, беглец опрокидывает на себя ведра с краской и преображается до неузнаваемости. Награды: Диплом IV Международного Фестиваля для детей и юношества в Венеции (1953).
5. Уважаемый леший - 1988 г. Мультипликационный фильм для детей, решенный в жанре своеобразной буффонады, близкой к цирковому представлению, где в роли клоунов выступают персонажи русских народных сказок: Баба-Яга, Леший и Заяц.
6. Охотничье ружье - 1948 г. Мультипликационный фильм о храбром и находчивом зайце, который потихоньку берет у спящего охотника ружье. Угрожая ружьем, заяц прогоняет из своего домика лису, но вскоре по лесу разносится слух, что ружье не заряжено. Лиса и пришедший к ней в гости волк снова завладевают домиком. Но, в конце концов, заяц выходит победителем.
7. Чьи в лесу шишки? - 1965 г. Мультипликационный фильм о том, как Волк объявляет, что грибы, ягоды и шишки в лесу принадлежат ему. Когда Ёж, Белка, Заяц и Лягушонок собирают грибы, Лисёнок доносит об этом Волку. Зверята заставляют Волка признаться , что он не прав.
8. Разные колеса - 1960 г. Мультипликационный фильм о том, как трудолюбивые и зобретательные жители теремка: петушок, ежик, лягушка и муха нашли в лесу оброненную медведем телегу с разными колесами и сделали из них много полезных вещей.

Страна: СССР
Студия: Союзмультфильм
Продолжительность: 01:34:11
Перевод: не требуется
Файл
Формат: MKV
Качество: DVDRip-AVC
Видео: MPEG4 AVC 768 x 576, 25.000 fps, 1750 - 1944 Кбит/сек
Звук: AC-3, 2 ch, 192 Кб/сек
Субтитры: Нет

General
Unique ID : 203046167926724117643101000172252650016 (0x98C144FD513C93B18106417190AB5A20)
Complete name : D:DownloadsLesnie.Skazki.3. 1946-1951.x264.DVDRip.(AVC).by.Тorrent-Хzona.mkv
Format : Matroska
Format version : Version 2
File size : 140 MiB
Duration : 10mn 5s
Overall bit rate : 1 944 Kbps
Encoded date : UTC 2013-06-12 06:32:11
Writing application : mkvmerge v6.1.0 ('Old Devil') built on Mar 4 2013 09:10:42
Writing library : libebml v1.3.0 + libmatroska v1.4.0
Video
ID : 1
Format : AVC
Format/Info : Advanced Video Codec
Format profile : High@L4.1
Format settings, CABAC : Yes
Format settings, ReFrames : 6 frames
Codec ID : V_MPEG4/ISO/AVC
Duration : 10mn 5s
Bit rate : 1 750 Kbps
Width : 768 pixels
Height : 576 pixels
Display aspect ratio : 4:3
Frame rate mode : Constant
Frame rate : 25.000 fps
Color space : YUV
Chroma subsampling : 4:2:0
Bit depth : 8 bits
Scan type : Progressive
Bits/(Pixel*Frame) : 0.158
Stream size : 124 MiB (88%)
Writing library : x264 core 130 r2273 b3065e6
Encoding settings : cabac=1 / ref=6 / deblock=1:1:1 / analyse=0x3:0x111 / me=umh / subme=9 / psy=1 / psy_rd=0.40:0.00 / mixed_ref=1 / me_range=32 / chroma_me=1 / trellis=2 / 8x8dct=1 / cqm=0 / deadzone=21,11 / fast_pskip=0 / chroma_qp_offset=-2 / threads=3 / lookahead_threads=1 / sliced_threads=0 / nr=0 / decimate=1 / interlaced=0 / bluray_compat=0 / constrained_intra=0 / bframes=5 / b_pyramid=2 / b_adapt=0 / b_bias=0 / direct=1 / weightb=1 / open_gop=0 / weightp=2 / keyint=250 / keyint_min=25 / scenecut=40 / intra_refresh=0 / rc_lookahead=50 / rc=2pass / mbtree=1 / bitrate=1750 / ratetol=1.0 / qcomp=0.60 / qpmin=0 / qpmax=69 / qpstep=4 / cplxblur=20.0 / qblur=0.5 / ip_ratio=1.40 / aq=1:0.60
Default : Yes
Forced : No
Audio
ID : 2
Format : AC-3
Format/Info : Audio Coding 3
Mode extension : CM (complete main)
Format settings, Endianness : Big
Codec ID : A_AC3
Duration : 10mn 5s
Bit rate mode : Constant
Bit rate : 192 Kbps
Channel(s) : 2 channels
Channel positions : Front: L R
Sampling rate : 48.0 KHz
Bit depth : 16 bits
Compression mode : Lossy
Stream size : 13.8 MiB (10%)
Default : Yes
Forced : No



Релиз от: &



   Похожие торренты   Торрент   Размер 
В этой теме нет новых непрочитанных сообщений. Лесные сказки. Часть 1. Сборник мультфильмов (1946-1953) DVDRip-AVC от Тorrent-Хzona

143 | 12

1.41 ГБ

В этой теме нет новых непрочитанных сообщений. Лесные сказки. Часть 2. Сборник мультфильмов (1946-1951) DVDRip-AVC от Тorrent-Хzona

94 | 11

1.03 ГБ

В этой теме нет новых непрочитанных сообщений. Самые любимые мультики. Сборник мультфильмов. Выпуск 23 (1946-1988) DVDRip-AVC от Тorrent-Хzona

114 | 17

1.56 ГБ

В этой теме нет новых непрочитанных сообщений. В гостях у лета. Сборник мультфильмов (1946-1981) DVDRip-AVC от Тorrent-Хzona

72 | 3

935.24 МБ

В этой теме нет новых непрочитанных сообщений. Домашний цирк. Сборник мультфильмов (1950-1988) DVDRip-AVC от Тorrent-Хzona

3 | 3

1.02 ГБ

В этой теме нет новых непрочитанных сообщений. Сборник мультфильмов - Лесные сказки (1975-1987) DVDRip от ImperiaFilm

111 | 14

4.43 ГБ

В этой теме нет новых непрочитанных сообщений. Лесные сказки. Сборник мультфильмов (1978-1987) DVDRip от muhomor

17 | 6

1005.65 МБ




Вы не можете начинать темы
Вы не можете отвечать на сообщения
Вы не можете редактировать свои сообщения
Вы не можете удалять свои сообщения
Вы не можете добавлять вложения

Перейти:  
Для Мосгорсуда, Роскомнадзора и рекламодателей: mosgorsud-torrent[собачка]yandex.ru
 Вход
ppkBB3cker v.2 © 2008-2014 @ PPK
[ Time : 0.045s | 14 Queries | GZIP : Off ]

Торрент трекер RUTOR.IN, Не можете зайти на rutor.org? Какой новый адрес рутор? Какое зеркало рутор? Не работает rutor.org и зеркала? Тогда наш торрент специально для вас. Rutor.in неофициальное зеркало rutor. В случае если у Вас заблокирован rutor или вдруг Вы не можете на него зайти, то Вы без труда сможете скачать бесплатно и без рекламы последние новинки кино, игр, сериалов и прочего у нас, на Rutor.in. Не нужно использовать прокси, чтобы зайти на рутор, достаточно воспользоваться нашим ресурсом. Все новые фильмы, игры, сериалы, книги и музыка за 2013 и 2014 годы через торрент бесплатно. Скачивайте фильмы в хорошем качестве, игры для пк, xbox, playstation без регистрации. У нас вы найдете новые Зарубежные сериалы и Русские сериалы 2013, 2014, 2015 годов. Оставайтесь с нами, качайте любимые фильмы, игры, сериалы, книги и музыку.