img image001 image001 image001 image001 image001 image001 image001 image001 image001 image001 image001 image001 image001 image001 image001

Planets Sun Sun Sun
Статистика раздачи
Автор: Снежана | Размер: 2.17 ГБ | Добавлен: 27 июл 2013
Раздают: 0    Качают: 1
Скачать торрент
Скачать торрент
Описание торрента

СообщениеДобавлено: 27 июл 2013 

#77

Страна: Япония
Год выпуска: 1997
Жанр: Приключения, фэнтези, драма
Продолжительность: 02:13:44
Перевод: Профессиональный (дублированный)
Субтитры: Нет / Без хардсаба

Режиссер: Хаяо Миядзаки / Hayao Miyazaki

Описание: Юный принц Аситака, убив вепря, навлек на себя смертельное проклятие. Старая знахарка предсказала ему, что только он сам способен изменить свою судьбу. И отважный воин отправился в опасное путешествие. Так он оказался в загадочной стране, где люди под предводительством злой госпожи Эбоси воевали с обитателями леса: духами, демонами и гигантскими существами, каких Аситака раньше никогда не видел.
И была с ними принцесса Мононоке — повелительница зверей и дочь волчицы. Теперь судьба всех зависит только от одного воина — принца Аситака…
Фильм, поражающий своей неоднозначностью, в котором трудно разобраться кто из героев хороший, а кто плохой. Отрицательные герои встают на сторону добра, а положительные – полны внутренней ненависти, злобы.
Вечная борьба человека с природой ради собственной выгоды, героизм и предательство, любовь и ненависть, вражда и вновь зарождающиеся светлые чувства – всё смешалось в этом фантастическом фильме. Прекрасный полнометражный мультфильм для семейного просмотра, в котором взрослые почерпнут для себя мудрость восточной философии, а дети будут в восторге от захватывающих приключений.

Качество: HDTVRip
Контейнер: AVI
Видео кодек: XviD
Аудио кодек: AC3
Видео: 720x400 (1.80:1), 23.976 fps, XviD build 50 ~1868 kbps avg, 0.27 bit/pixel
Аудио: 48 kHz, AC3 Dolby Digital, 3/2 (L,C,R,l,r) + LFE ch, ~448 kbps

Раздача от:


D:Мои рипы. Вторая частьPrincessa.Mononoke.1997.HDTVRip.D.2.18Gb.[YTN]_by_dexter_lex.avi
General
Complete name : D:Мои рипы. Вторая частьPrincessa.Mononoke.1997.HDTVRip.D.2.18Gb.[YTN]_by_dexter_lex.avi
Format : AVI
Format/Info : Audio Video Interleave
Format profile : OpenDML
File size : 2.17 GiB
Duration : 2h 13mn
Overall bit rate : 2 327 Kbps
Writing application : VirtualDubMod 1.5.10.3 | www.virtualdub-fr.org || (build 2550/release)
Writing library : VirtualDubMod build 2550/release
Video #0
ID : 0
Format : MPEG-4 Visual
Format profile : Advanced Simple@L5
Format settings, BVOP : 1
Format settings, QPel : No
Format settings, GMC : No warppoints
Format settings, Matrix : Custom
Codec ID : XVID
Codec ID/Hint : XviD
Duration : 2h 13mn
Bit rate : 1 868 Kbps
Width : 720 pixels
Height : 400 pixels
Display aspect ratio : 1.80:1
Frame rate : 23.976 fps
Color space : YUV
Chroma subsampling : 4:2:0
Bit depth : 8 bits
Scan type : Progressive
Compression mode : Lossy
Bits/(Pixel*Frame) : 0.271
Stream size : 1.75 GiB (80%)
Writing library : XviD 1.2.1 (UTC 2008-12-04)
Audio #1
ID : 1
Format : AC-3
Format/Info : Audio Coding 3
Mode extension : CM (complete main)
Format settings, Endianness : Big
Codec ID : 2000
Duration : 2h 13mn
Bit rate mode : Constant
Bit rate : 448 Kbps
Channel(s) : 6 channels
Channel positions : Front: L C R, Side: L R, LFE
Sampling rate : 48.0 KHz
Bit depth : 16 bits
Compression mode : Lossy
Stream size : 427 MiB (19%)
Alignment : Split accross interleaves
Interleave, duration : 42 ms (1.00 video frame)
Interleave, preload duration : 500 ms




   Похожие торренты   Торрент   Размер 
В этой теме нет новых непрочитанных сообщений. Принцесса Мононоке / Princess Mononoke / Mononoke Hime (1997) HDRip от New-Team

59 | 20

798.49 МБ

В этой теме нет новых непрочитанных сообщений. Принцесса Мононоке / Princess Mononoke / Mononoke Hime (1997) HDRip от New-Team

570 | 34

1.46 ГБ

В этой теме нет новых непрочитанных сообщений. Принцесса Мононоке / Princess Mononoke / Mononoke Hime (1997) HDRip от New-Team

30 | 7

2.18 ГБ

В этой теме нет новых непрочитанных сообщений. Принцесса Мононоке / Mononoke Hime / Princess Mononoke (1997) BDRip-AVC от MediaClub | D, P, P2, A

40 | 9

6.12 ГБ

В этой теме нет новых непрочитанных сообщений. Принцесса Мононоке / Mononoke Hime (Princess Mononoke) (1997) BDRemux 1080p | D, P, P2, A

13 | 7

28.79 ГБ

В этой теме нет новых непрочитанных сообщений. Принцесса Мононоке / Princess Mononoke / Mononoke-hime (1997) BDRip от HQCLUB

537 | 46

2.18 ГБ

В этой теме нет новых непрочитанных сообщений. Принцесса Мононоке / Princess Mononoke / Mononoke Hime (1997) DVDRip

73 | 4

2.05 ГБ




Вы не можете начинать темы
Вы не можете отвечать на сообщения
Вы не можете редактировать свои сообщения
Вы не можете удалять свои сообщения
Вы не можете добавлять вложения

Перейти:  
Для Мосгорсуда, Роскомнадзора и рекламодателей: mosgorsud-torrent[собачка]yandex.ru
 Вход
ppkBB3cker v.2 © 2008-2014 @ PPK
[ Time : 0.032s | 14 Queries | GZIP : Off ]

Торрент трекер RUTOR.IN, Не можете зайти на rutor.org? Какой новый адрес рутор? Какое зеркало рутор? Не работает rutor.org и зеркала? Тогда наш торрент специально для вас. Rutor.in неофициальное зеркало rutor. В случае если у Вас заблокирован rutor или вдруг Вы не можете на него зайти, то Вы без труда сможете скачать бесплатно и без рекламы последние новинки кино, игр, сериалов и прочего у нас, на Rutor.in. Не нужно использовать прокси, чтобы зайти на рутор, достаточно воспользоваться нашим ресурсом. Все новые фильмы, игры, сериалы, книги и музыка за 2013 и 2014 годы через торрент бесплатно. Скачивайте фильмы в хорошем качестве, игры для пк, xbox, playstation без регистрации. У нас вы найдете новые Зарубежные сериалы и Русские сериалы 2013, 2014, 2015 годов. Оставайтесь с нами, качайте любимые фильмы, игры, сериалы, книги и музыку.