img image001 image001 image001 image001 image001 image001 image001 image001 image001 image001 image001 image001 image001 image001 image001

Planets Sun Sun Sun
Статистика раздачи
Автор: Снежана | Размер: 4.37 ГБ | Добавлен: 27 июл 2013
Раздают: 14    Качают: 8
Скачать торрент
Скачать торрент
Описание торрента

СообщениеДобавлено: 27 июл 2013 

Хранители снов / Rise of the Guardians
(2012)
BDRip 1080p [Hi10P] от FREEISLAND


«Naughty, nice. You better believe.»




Год выпуска: 2012
Страна: США
Жанр: мультфильм, фэнтези, приключения, семейныйслова
Продолжительность: 1 ч. 29 м. 12 с. (все титры аккуратно вырезаны в целях экономии битрейта, послетитровая сюжетная сценка присутствует)
Перевод: Дублированный - Пифагор (2012г.)

Режиссер: Питер Рэмзи
Продюссер: Нэнси Бернштейн, Кристина Стейнберг, Гильермо дель Торо
Сценарий: Дэвид Линдси-Эбейр, Уильям Джойс
Композитор: Александр Депла
Студия: DreamWorks Animation

Бюджет: $145 000 000
Релиз на Blu-Ray: 25 марта 2013, «Новый Диск»
Премьера в мире: 10 октября 2012

- Рекомендуется присутствие родителей



Роли дублировали:
Тимур Родригез - Jack Frost, Александр Новиков - North, Сергей Смирнов - Pitch, Кристина Асмус - Tooth, Даниил Эльдаров - Bunny, Даниил Трещов - Jamie Bennett, Анна Денисова, Василиса Эльдарова
Описание:
Когда злой дух Кромешник посягает на самое дорогое — детские мечты, Северянин, Ледяной Джек, Кролик, Зубная Фея и Песочный Человек впервые объединяются, чтобы создать команду Хранителей снов...

Внимание!

Рип в High 10 Profile, в настоящее время не поддерживается большинством аппаратных проигрывателей.
Для корректного воспроизведения может потребоваться обновление ПО.
Владельцам несовместимого железа просьба не беспокоить, на трекере есть альтернативные релизы.



Качество: BDRip 1080p Hi10P (SSIM: 0.9750145)
Исходник: Blu-Ray Disc
Контейнер: MKV
Видео кодек: x264 High10@L5.1
Аудио кодек: AC3
Видео: AVC at 6380 Кбит/сек, 1920 x 1080 (1.778) at 23.976 fps
Аудио: AC-3 at 640 Кбит/сек, 6 каналов, 48,0 КГц
Субтитры: русские полные (SRT/UTF-8)
Навигация по главам: есть


Общее
Уникальный идентификатор : 204469781276593699078334552513661804544 (0x99D3728BF89C5D70A0D5099447DEA000)
Полное имя : Хранители снов [Rise of the Guardians] (2012) BDRip-Hi10P 1080p by_F.HD.mkv
Формат : Matroska
Версия формата : Version 4 / Version 2
Размер файла : 4,37 Гбайт
Продолжительность : 1 ч. 29 м.
Общий поток : 7021 Кбит/сек
Название фильма : релиз от FREEISLAND.ORG
Дата кодирования : UTC 2013-06-20 09:28:30
Программа кодирования : mkvmerge v6.2.0 ('Promised Land') built on Apr 28 2013 12:22:01
Библиотека кодирования : libebml v1.3.0 + libmatroska v1.4.0

Видео
Идентификатор : 1
Формат : AVC
Формат/Информация : Advanced Video Codec
Профиль формата : High 10@L5.1
Параметр CABAC формата : Да
Параметр ReFrames формата : 16 кадров
Идентификатор кодека : V_MPEG4/ISO/AVC
Продолжительность : 1 ч. 29 м.
Битрейт : 6380 Кбит/сек
Ширина : 1920 пикселей
Высота : 1080 пикселей
Соотношение сторон : 16:9
Частота кадров : 23,976 кадра/сек
Цветовое пространство : YUV
Субдискретизация насыщенности : 4:2:0
Битовая глубина : 10 бит
Тип развёртки : Прогрессивная
Бит/(Пиксели*Кадры) : 0.128
Размер потока : 3,89 Гбайт (89%)
Библиотека кодирования : x264 core 133 r2334+704+50 a7549b7 tMod [10-bit@all X86_64]
Настройки программы : cabac=1 / ref=16 / deblock=1:-1:0 / analyse=0x3:0x133 / me=umh / subme=11 / psy=1 / fade_compensate=0.00 / psy_rd=1.00:0.15 / mixed_ref=1 / me_range=64 / chroma_me=1 / trellis=2 / 8x8dct=1 / cqm=0 / deadzone=21,11 / fast_pskip=0 / chroma_qp_offset=-3 / threads=12 / lookahead_threads=3 / sliced_threads=0 / nr=0 / decimate=1 / interlaced=0 / bluray_compat=0 / constrained_intra=0 / fgo=0 / bframes=11 / b_pyramid=2 / b_adapt=2 / b_bias=0 / direct=3 / weightb=1 / open_gop=0 / weightp=2 / keyint=265 / keyint_min=21 / scenecut=40 / intra_refresh=0 / rc_lookahead=0 / rc=2pass / mbtree=0 / bitrate=6380 / ratetol=1.0 / qcomp=1.00 / qpmin=0 / qpmax=48 / qpstep=4 / cplxblur=20.0 / qblur=0.5 / vbv_maxrate=240000 / vbv_bufsize=240000 / nal_hrd=none / ip_ratio=1.40 / pb_ratio=1.30 / aq=4:0.75 / aq-sensitivity=15.00 / aq-factor=1.00:1.00:1.00 / aq2=1:1.10 / aq2-sensitivity=11.60 / aq2-factor=1.00:1.00:1.00 / aq3=0
Default : Да
Forced : Нет
Основные цвета : BT.709-5, BT.1361, IEC 61966-2-4, SMPTE RP177
Характеристики трансфера : BT.709-5, BT.1361
Коэффициенты матрицы : BT.709-5, BT.1361, IEC 61966-2-4 709, SMPTE RP177

Аудио
Идентификатор : 2
Формат : AC-3
Формат/Информация : Audio Coding 3
Расширение режима : CM (complete main)
Идентификатор кодека : A_AC3
Продолжительность : 1 ч. 29 м.
Вид битрейта : Постоянный
Битрейт : 640 Кбит/сек
Каналы : 6 каналов
Расположение каналов : Front: L C R, Side: L R, LFE
Частота : 48,0 КГц
Битовая глубина : 16 бит
Метод сжатия : С потерями
Размер потока : 408 Мбайт (9%)
Заголовок : Dub
Язык : Russian
Default : Да
Forced : Нет

Текст
Идентификатор : 3
Формат : UTF-8
Идентификатор кодека : S_TEXT/UTF8
Идентификатор кодека/Информация : UTF-8 Plain Text
Заголовок : Full
Язык : Russian
Default : Нет
Forced : Нет

Меню
00:00:00.000 : :01
00:03:21.451 : :02
00:10:04.813 : :03
00:15:47.613 : :04
00:24:19.333 : :05
00:30:08.348 : :06
00:36:08.917 : :07
00:42:35.136 : :08
00:49:52.281 : :09
00:57:39.581 : :10
01:03:25.301 : :11
01:08:42.785 : :12
01:13:33.159 : :13
01:20:14.893 : :14
01:24:21.473 : :15













Релиз от:

Если у вас возникают вопросы типа:
-почему у меня есть звук и отсутствует изображение?
-почему у меня рассыпается картинка?
-почему у меня картинка фонит синевой или зеленью?
-зачем и кому всё это нужно?
и тому подобные, читаем FAQ.
ссылка на FAQ запрещена правилами.

По этому, гуглим на тему спойлера (Что такое 10-ти битное видео (High 10 Profile - Hi10P), и как его смотреть?).



   Похожие торренты   Торрент   Размер 
В этой теме нет новых непрочитанных сообщений. Хранители снов / Rise of the Guardians (2012) BDRip 1080p

187 | 17

7.76 ГБ

В этой теме нет новых непрочитанных сообщений. Хранители снов / Rise of the Guardians (2012) BDRip 1080p | Лицензия

41 | 11

9.11 ГБ

В этой теме нет новых непрочитанных сообщений. Хранители снов / Rise of the Guardians (2012) BDRip 1080p от NNNB | 60 fps

298 | 42

7.78 ГБ

В этой теме нет новых непрочитанных сообщений. Хранители снов / Rise of the Guardians (2012) BDRip 1080p | Лицензия

38 | 5

13.49 ГБ

В этой теме нет новых непрочитанных сообщений. Хранители снов / Rise of the Guardians (2012) BDRip 1080p | 3D-Video | D | Лицензия

98 | 9

10.99 ГБ

В этой теме нет новых непрочитанных сообщений. Хранители снов / Rise of the Guardians (2012) BDRip 1080p от Youtracker | 3D-Video | Лицензия

22 | 7

11.48 ГБ

В этой теме нет новых непрочитанных сообщений. Хранители снов / Rise of the Guardians (2012) Blu-ray 1080p от Youtracker | 3D-Video | D

4 | 13

40.39 ГБ




Вы не можете начинать темы
Вы не можете отвечать на сообщения
Вы не можете редактировать свои сообщения
Вы не можете удалять свои сообщения
Вы не можете добавлять вложения

Перейти:  
Для Мосгорсуда, Роскомнадзора и рекламодателей: mosgorsud-torrent[собачка]yandex.ru
 Вход
ppkBB3cker v.2 © 2008-2014 @ PPK
[ Time : 0.519s | 15 Queries | GZIP : Off ]

Торрент трекер RUTOR.IN, Не можете зайти на rutor.org? Какой новый адрес рутор? Какое зеркало рутор? Не работает rutor.org и зеркала? Тогда наш торрент специально для вас. Rutor.in неофициальное зеркало rutor. В случае если у Вас заблокирован rutor или вдруг Вы не можете на него зайти, то Вы без труда сможете скачать бесплатно и без рекламы последние новинки кино, игр, сериалов и прочего у нас, на Rutor.in. Не нужно использовать прокси, чтобы зайти на рутор, достаточно воспользоваться нашим ресурсом. Все новые фильмы, игры, сериалы, книги и музыка за 2013 и 2014 годы через торрент бесплатно. Скачивайте фильмы в хорошем качестве, игры для пк, xbox, playstation без регистрации. У нас вы найдете новые Зарубежные сериалы и Русские сериалы 2013, 2014, 2015 годов. Оставайтесь с нами, качайте любимые фильмы, игры, сериалы, книги и музыку.