img image001 image001 image001 image001 image001 image001 image001 image001 image001 image001 image001 image001 image001 image001 image001

Planets Sun Sun Sun
Статистика раздачи
Автор: Снежана | Размер: 625.61 МБ | Добавлен: 27 июл 2013
Раздают: 12    Качают: 4
Скачать торрент
Скачать торрент
Описание торрента

СообщениеДобавлено: 27 июл 2013 

#77

Информация о фильме
Название: Аркадий Паровозов спешит на помощь
Страна: Россия
Жанр: Мультсериал, Анимация, Детский
Релиз группа: Пуз-Карапуз
Продолжительность: 00:02:00
Год выпуска: 2012 - 2013
Перевод: Не требуется
Русские субтитры: нет

Режиссёр: Евгений Головин
Автор сценария: Вадим Воля
Роли озвучивали: Вадим Воля — чтение текста, Игорь Войнаровский — исполнение песни

Описание: Новый русский познавательный мультсериал. В каждой двухминутной серии новые поучительные истории о приключениях неутомимых проказников, Маши и Саши. Любая их затея — приготовление пирога, постройка звездолета или лесная прогулка — обычно приводит к непредвиденным последствиям. Как хорошо, что удивительный супергерой Аркадий Паровозов всегда вовремя приходит ребятам на помощь!

Герои. Саша и Маша — любопытные дети, которые любят шалить и устраивать беспорядки. Они как будто притягивают к себе все беды и неприятности. Брат и сестра живут на двенадцатом этаже, учатся средне.
Аркадий Паровозов — спасатель, герой и космонавт; добрый и смелый, веселый и находчивый. Он умеет летать, неплохо играет на баяне, не курит и живет на Луне.


1. В магазине
2. Классики
3. Качели
4. Прятки
5. Грузовик
6. Уборка
7. Лес
8. Газ
9. Незнакомец
10. Спички
11. Солнце
12. Микробы
13. Молния
14. Грибы
15. Лес зимой
16. Санки
17. Не касайтесь железных предметов
18. Метро
19. Лекарство
20. Незнакомец 2
21. Обогреватель
22. Не залезать на подоконник
23. Ключ от квартиры
24. Теплые головные уборы
25. Остерегайтесь сосулек
26. Не отплывайте далеко от берега
27. В транспорте обязательно держитесь за поручни


Что? Занимательные и очень поучительные истории о приключениях неутомимых проказников, Маши и Саши. Любая их затея — приготовление пирога, постройка звездолета или лесная прогулка — обычно приводит к непредвиденным последствиям. Как хорошо, что удивительный Аркадий Паровозов всегда вовремя приходит ребятам на помощь!
Зачем? Оригинальный мультсериал, обучающий основам безопасности жизнедеятельности в стихотворной форме. Основная задача проекта — научить детей быстро и правильно реагировать в случае опасных ситуаций и предотвращать их возникновение.

Мультсериал адресован детям 4-7 лет, однако будет полезен и интересен и более старшему возрасту.


Качество: SATRip
Формат: AVI
Видео: Xvid, 640x480 (4:3), 25,000 fps, ~1291 kbps
Аудио: MP3, 2 канала, Joint Stereo, 48,0 КГц, 128 kbps
Субтитры: отсутствуют
Код:
Общее
Полное имя                               : D:МультфильмыАркадий Паровозов�1_V_magazine.avi
Формат                                   : AVI
Формат/Информация                        : Audio Video Interleave
Размер файла                             : 20,6 Мбайт
Продолжительность                        : 2 м. 0 с.
Общий поток                              : 1431 Кбит/сек
Программа кодирования                    : Lavf52.94.0

Видео
Идентификатор                            : 0
Формат                                   : xvid
Идентификатор кодека                     : xvid
Продолжительность                        : 2 м. 0 с.
Битрейт                                  : 1291 Кбит/сек
Ширина                                   : 640 пикселей
Высота                                   : 480 пикселей
Соотношение сторон                       : 4:3
Частота кадров                           : 25,000 кадров/сек
Бит/(Пиксели*Кадры)                      : 0.168
Размер потока                            : 18,6 Мбайт (90%)

Аудио
Идентификатор                            : 1
Формат                                   : MPEG Audio
Версия формата                           : Version 1
Профиль формата                          : Layer 3
Режим                                    : Joint stereo
Расширение режима                        : MS Stereo
Идентификатор кодека                     : 55
Идентификатор кодека/Подсказка           : MP3
Продолжительность                        : 2 м. 0 с.
Вид битрейта                             : Постоянный
Битрейт                                  : 128 Кбит/сек
Каналы                                   : 2 канала
Частота                                  : 48,0 КГц
Метод сжатия                             : С потерями
Размер потока                            : 1,84 Мбайт (9%)
Выравнивание                             : Соединение по промежуткам
Продолжительность промежутка             : 24  мс. (0,60 видеокадр)

Общее
Полное имя                               : D:МультфильмыАркадий Паровозов�2_Klassiki.avi
Формат                                   : AVI
Формат/Информация                        : Audio Video Interleave
Размер файла                             : 20,8 Мбайт
Продолжительность                        : 2 м. 1 с.
Общий поток                              : 1431 Кбит/сек
Программа кодирования                    : Lavf52.94.0

Видео
Идентификатор                            : 0
Формат                                   : xvid
Идентификатор кодека                     : xvid
Продолжительность                        : 2 м. 1 с.
Битрейт                                  : 1290 Кбит/сек
Ширина                                   : 640 пикселей
Высота                                   : 480 пикселей
Соотношение сторон                       : 4:3
Частота кадров                           : 25,000 кадров/сек
Бит/(Пиксели*Кадры)                      : 0.168
Размер потока                            : 18,7 Мбайт (90%)

Аудио
Идентификатор                            : 1
Формат                                   : MPEG Audio
Версия формата                           : Version 1
Профиль формата                          : Layer 3
Режим                                    : Joint stereo
Расширение режима                        : MS Stereo
Идентификатор кодека                     : 55
Идентификатор кодека/Подсказка           : MP3
Продолжительность                        : 2 м. 1 с.
Вид битрейта                             : Постоянный
Битрейт                                  : 128 Кбит/сек
Каналы                                   : 2 канала
Частота                                  : 48,0 КГц
Метод сжатия                             : С потерями
Размер потока                            : 1,86 Мбайт (9%)
Выравнивание                             : Соединение по промежуткам
Продолжительность промежутка             : 24  мс. (0,60 видеокадр)

Общее
Полное имя                               : D:МультфильмыАркадий Паровозов�3_Kacheli.avi
Формат                                   : AVI
Формат/Информация                        : Audio Video Interleave
Размер файла                             : 20,5 Мбайт
Продолжительность                        : 2 м. 0 с.
Общий поток                              : 1430 Кбит/сек
Программа кодирования                    : Lavf52.94.0

Видео
Идентификатор                            : 0
Формат                                   : xvid
Идентификатор кодека                     : xvid
Продолжительность                        : 1 м. 59 с.
Битрейт                                  : 1289 Кбит/сек
Ширина                                   : 640 пикселей
Высота                                   : 480 пикселей
Соотношение сторон                       : 4:3
Частота кадров                           : 25,000 кадров/сек
Бит/(Пиксели*Кадры)                      : 0.168
Размер потока                            : 18,4 Мбайт (90%)

Аудио
Идентификатор                            : 1
Формат                                   : MPEG Audio
Версия формата                           : Version 1
Профиль формата                          : Layer 3
Режим                                    : Joint stereo
Расширение режима                        : MS Stereo
Идентификатор кодека                     : 55
Идентификатор кодека/Подсказка           : MP3
Продолжительность                        : 2 м. 0 с.
Вид битрейта                             : Постоянный
Битрейт                                  : 128 Кбит/сек
Каналы                                   : 2 канала
Частота                                  : 48,0 КГц
Метод сжатия                             : С потерями
Размер потока                            : 1,83 Мбайт (9%)
Выравнивание                             : Соединение по промежуткам
Продолжительность промежутка             : 24  мс. (0,60 видеокадр)
Библиотека кодирования                   : LAME

Общее
Полное имя                               : D:МультфильмыАркадий Паровозов�4_Priatki.avi
Формат                                   : AVI
Формат/Информация                        : Audio Video Interleave
Размер файла                             : 20,8 Мбайт
Продолжительность                        : 2 м. 1 с.
Общий поток                              : 1431 Кбит/сек
Программа кодирования                    : Lavf52.94.0

Видео
Идентификатор                            : 0
Формат                                   : xvid
Идентификатор кодека                     : xvid
Продолжительность                        : 2 м. 1 с.
Битрейт                                  : 1290 Кбит/сек
Ширина                                   : 640 пикселей
Высота                                   : 480 пикселей
Соотношение сторон                       : 4:3
Частота кадров                           : 25,000 кадров/сек
Бит/(Пиксели*Кадры)                      : 0.168
Размер потока                            : 18,7 Мбайт (90%)

Аудио
Идентификатор                            : 1
Формат                                   : MPEG Audio
Версия формата                           : Version 1
Профиль формата                          : Layer 3
Режим                                    : Joint stereo
Расширение режима                        : MS Stereo
Идентификатор кодека                     : 55
Идентификатор кодека/Подсказка           : MP3
Продолжительность                        : 2 м. 1 с.
Вид битрейта                             : Постоянный
Битрейт                                  : 128 Кбит/сек
Каналы                                   : 2 канала
Частота                                  : 48,0 КГц
Метод сжатия                             : С потерями
Размер потока                            : 1,86 Мбайт (9%)
Выравнивание                             : Соединение по промежуткам
Продолжительность промежутка             : 24  мс. (0,60 видеокадр)

Общее
Полное имя                               : D:МультфильмыАркадий Паровозов�5_Gruzovik.avi
Формат                                   : AVI
Формат/Информация                        : Audio Video Interleave
Размер файла                             : 21,0 Мбайт
Продолжительность                        : 2 м. 2 с.
Общий поток                              : 1429 Кбит/сек
Программа кодирования                    : Lavf52.94.0

Видео
Идентификатор                            : 0
Формат                                   : xvid
Идентификатор кодека                     : xvid
Продолжительность                        : 2 м. 2 с.
Битрейт                                  : 1289 Кбит/сек
Ширина                                   : 640 пикселей
Высота                                   : 480 пикселей
Соотношение сторон                       : 4:3
Частота кадров                           : 25,000 кадров/сек
Бит/(Пиксели*Кадры)                      : 0.168
Размер потока                            : 18,9 Мбайт (90%)

Аудио
Идентификатор                            : 1
Формат                                   : MPEG Audio
Версия формата                           : Version 1
Профиль формата                          : Layer 3
Режим                                    : Joint stereo
Расширение режима                        : MS Stereo
Идентификатор кодека                     : 55
Идентификатор кодека/Подсказка           : MP3
Продолжительность                        : 2 м. 2 с.
Вид битрейта                             : Постоянный
Битрейт                                  : 128 Кбит/сек
Каналы                                   : 2 канала
Частота                                  : 48,0 КГц
Метод сжатия                             : С потерями
Размер потока                            : 1,88 Мбайт (9%)
Выравнивание                             : Соединение по промежуткам
Продолжительность промежутка             : 24  мс. (0,60 видеокадр)

Общее
Полное имя                               : D:МультфильмыАркадий Паровозов�6_Uborka.avi
Формат                                   : AVI
Формат/Информация                        : Audio Video Interleave
Размер файла                             : 19,0 Мбайт
Продолжительность                        : 1 м. 51 с.
Общий поток                              : 1433 Кбит/сек
Программа кодирования                    : Lavf52.94.0

Видео
Идентификатор                            : 0
Формат                                   : xvid
Идентификатор кодека                     : xvid
Продолжительность                        : 1 м. 50 с.
Битрейт                                  : 1293 Кбит/сек
Ширина                                   : 640 пикселей
Высота                                   : 480 пикселей
Соотношение сторон                       : 4:3
Частота кадров                           : 25,000 кадров/сек
Бит/(Пиксели*Кадры)                      : 0.168
Размер потока                            : 17,1 Мбайт (90%)

Аудио
Идентификатор                            : 1
Формат                                   : MPEG Audio
Версия формата                           : Version 1
Профиль формата                          : Layer 3
Режим                                    : Joint stereo
Расширение режима                        : MS Stereo
Идентификатор кодека                     : 55
Идентификатор кодека/Подсказка           : MP3
Продолжительность                        : 1 м. 51 с.
Вид битрейта                             : Постоянный
Битрейт                                  : 128 Кбит/сек
Каналы                                   : 2 канала
Частота                                  : 48,0 КГц
Метод сжатия                             : С потерями
Размер потока                            : 1,69 Мбайт (9%)
Выравнивание                             : Соединение по промежуткам
Продолжительность промежутка             : 24  мс. (0,60 видеокадр)

Общее
Полное имя                               : D:МультфильмыАркадий Паровозов�7_Les.avi
Формат                                   : AVI
Формат/Информация                        : Audio Video Interleave
Размер файла                             : 19,7 Мбайт
Продолжительность                        : 1 м. 55 с.
Общий поток                              : 1433 Кбит/сек
Программа кодирования                    : Lavf52.94.0

Видео
Идентификатор                            : 0
Формат                                   : xvid
Идентификатор кодека                     : xvid
Продолжительность                        : 1 м. 54 с.
Битрейт                                  : 1293 Кбит/сек
Ширина                                   : 640 пикселей
Высота                                   : 480 пикселей
Соотношение сторон                       : 4:3
Частота кадров                           : 25,000 кадров/сек
Бит/(Пиксели*Кадры)                      : 0.168
Размер потока                            : 17,7 Мбайт (90%)

Аудио
Идентификатор                            : 1
Формат                                   : MPEG Audio
Версия формата                           : Version 1
Профиль формата                          : Layer 3
Режим                                    : Joint stereo
Расширение режима                        : MS Stereo
Идентификатор кодека                     : 55
Идентификатор кодека/Подсказка           : MP3
Продолжительность                        : 1 м. 55 с.
Вид битрейта                             : Постоянный
Битрейт                                  : 128 Кбит/сек
Каналы                                   : 2 канала
Частота                                  : 48,0 КГц
Метод сжатия                             : С потерями
Размер потока                            : 1,75 Мбайт (9%)
Выравнивание                             : Соединение по промежуткам
Продолжительность промежутка             : 24  мс. (0,60 видеокадр)

Общее
Полное имя                               : D:МультфильмыАркадий Паровозов�8_Gaz.avi
Формат                                   : AVI
Формат/Информация                        : Audio Video Interleave
Размер файла                             : 19,6 Мбайт
Продолжительность                        : 1 м. 55 с.
Общий поток                              : 1432 Кбит/сек
Программа кодирования                    : Lavf52.94.0

Видео
Идентификатор                            : 0
Формат                                   : xvid
Идентификатор кодека                     : xvid
Продолжительность                        : 1 м. 54 с.
Битрейт                                  : 1291 Кбит/сек
Ширина                                   : 640 пикселей
Высота                                   : 480 пикселей
Соотношение сторон                       : 4:3
Частота кадров                           : 25,000 кадров/сек
Бит/(Пиксели*Кадры)                      : 0.168
Размер потока                            : 17,7 Мбайт (90%)

Аудио
Идентификатор                            : 1
Формат                                   : MPEG Audio
Версия формата                           : Version 1
Профиль формата                          : Layer 3
Режим                                    : Joint stereo
Расширение режима                        : MS Stereo
Идентификатор кодека                     : 55
Идентификатор кодека/Подсказка           : MP3
Продолжительность                        : 1 м. 55 с.
Вид битрейта                             : Постоянный
Битрейт                                  : 128 Кбит/сек
Каналы                                   : 2 канала
Частота                                  : 48,0 КГц
Метод сжатия                             : С потерями
Размер потока                            : 1,75 Мбайт (9%)
Выравнивание                             : Соединение по промежуткам
Продолжительность промежутка             : 24  мс. (0,60 видеокадр)

Общее
Полное имя                               : D:МультфильмыАркадий Паровозов�9_Neznakomec.avi
Формат                                   : AVI
Формат/Информация                        : Audio Video Interleave
Размер файла                             : 18,8 Мбайт
Продолжительность                        : 1 м. 50 с.
Общий поток                              : 1433 Кбит/сек
Программа кодирования                    : Lavf52.94.0

Видео
Идентификатор                            : 0
Формат                                   : xvid
Идентификатор кодека                     : xvid
Продолжительность                        : 1 м. 49 с.
Битрейт                                  : 1293 Кбит/сек
Ширина                                   : 640 пикселей
Высота                                   : 480 пикселей
Соотношение сторон                       : 4:3
Частота кадров                           : 25,000 кадров/сек
Бит/(Пиксели*Кадры)                      : 0.168
Размер потока                            : 16,9 Мбайт (90%)

Аудио
Идентификатор                            : 1
Формат                                   : MPEG Audio
Версия формата                           : Version 1
Профиль формата                          : Layer 3
Режим                                    : Joint stereo
Расширение режима                        : MS Stereo
Идентификатор кодека                     : 55
Идентификатор кодека/Подсказка           : MP3
Продолжительность                        : 1 м. 50 с.
Вид битрейта                             : Постоянный
Битрейт                                  : 128 Кбит/сек
Каналы                                   : 2 канала
Частота                                  : 48,0 КГц
Метод сжатия                             : С потерями
Размер потока                            : 1,68 Мбайт (9%)
Выравнивание                             : Соединение по промежуткам
Продолжительность промежутка             : 24  мс. (0,60 видеокадр)

Общее
Полное имя                               : D:МультфильмыАркадий Паровозов10_Spichki.avi
Формат                                   : AVI
Формат/Информация                        : Audio Video Interleave
Размер файла                             : 19,0 Мбайт
Продолжительность                        : 1 м. 51 с.
Общий поток                              : 1434 Кбит/сек
Программа кодирования                    : Lavf52.94.0

Видео
Идентификатор                            : 0
Формат                                   : xvid
Идентификатор кодека                     : xvid
Продолжительность                        : 1 м. 50 с.
Битрейт                                  : 1294 Кбит/сек
Ширина                                   : 640 пикселей
Высота                                   : 480 пикселей
Соотношение сторон                       : 4:3
Частота кадров                           : 25,000 кадров/сек
Бит/(Пиксели*Кадры)                      : 0.168
Размер потока                            : 17,1 Мбайт (90%)

Аудио
Идентификатор                            : 1
Формат                                   : MPEG Audio
Версия формата                           : Version 1
Профиль формата                          : Layer 3
Режим                                    : Joint stereo
Расширение режима                        : MS Stereo
Идентификатор кодека                     : 55
Идентификатор кодека/Подсказка           : MP3
Продолжительность                        : 1 м. 51 с.
Вид битрейта                             : Постоянный
Битрейт                                  : 128 Кбит/сек
Каналы                                   : 2 канала
Частота                                  : 48,0 КГц
Метод сжатия                             : С потерями
Размер потока                            : 1,69 Мбайт (9%)
Выравнивание                             : Соединение по промежуткам
Продолжительность промежутка             : 24  мс. (0,60 видеокадр)

Общее
Полное имя                               : D:МультфильмыАркадий Паровозов11_Solntse.avi
Формат                                   : AVI
Формат/Информация                        : Audio Video Interleave
Размер файла                             : 21,3 Мбайт
Продолжительность                        : 2 м. 5 с.
Общий поток                              : 1427 Кбит/сек
Программа кодирования                    : Lavf52.94.0

Видео
Идентификатор                            : 0
Формат                                   : xvid
Идентификатор кодека                     : xvid
Продолжительность                        : 2 м. 4 с.
Битрейт                                  : 1287 Кбит/сек
Ширина                                   : 640 пикселей
Высота                                   : 480 пикселей
Соотношение сторон                       : 4:3
Частота кадров                           : 25,000 кадров/сек
Бит/(Пиксели*Кадры)                      : 0.168
Размер потока                            : 19,2 Мбайт (90%)

Аудио
Идентификатор                            : 1
Формат                                   : MPEG Audio
Версия формата                           : Version 1
Профиль формата                          : Layer 3
Режим                                    : Joint stereo
Расширение режима                        : MS Stereo
Идентификатор кодека                     : 55
Идентификатор кодека/Подсказка           : MP3
Продолжительность                        : 2 м. 5 с.
Вид битрейта                             : Постоянный
Битрейт                                  : 128 Кбит/сек
Каналы                                   : 2 канала
Частота                                  : 48,0 КГц
Метод сжатия                             : С потерями
Размер потока                            : 1,91 Мбайт (9%)
Выравнивание                             : Соединение по промежуткам
Продолжительность промежутка             : 24  мс. (0,60 видеокадр)

Общее
Полное имя                               : D:МультфильмыАркадий Паровозов12_Microby.avi
Формат                                   : AVI
Формат/Информация                        : Audio Video Interleave
Размер файла                             : 20,9 Мбайт
Продолжительность                        : 2 м. 3 с.
Общий поток                              : 1427 Кбит/сек
Программа кодирования                    : Lavf52.94.0

Видео
Идентификатор                            : 0
Формат                                   : xvid
Идентификатор кодека                     : xvid
Продолжительность                        : 2 м. 2 с.
Битрейт                                  : 1286 Кбит/сек
Ширина                                   : 640 пикселей
Высота                                   : 480 пикселей
Соотношение сторон                       : 4:3
Частота кадров                           : 25,000 кадров/сек
Бит/(Пиксели*Кадры)                      : 0.167
Размер потока                            : 18,8 Мбайт (90%)

Аудио
Идентификатор                            : 1
Формат                                   : MPEG Audio
Версия формата                           : Version 1
Профиль формата                          : Layer 3
Режим                                    : Joint stereo
Расширение режима                        : MS Stereo
Идентификатор кодека                     : 55
Идентификатор кодека/Подсказка           : MP3
Продолжительность                        : 2 м. 3 с.
Вид битрейта                             : Постоянный
Битрейт                                  : 128 Кбит/сек
Каналы                                   : 2 канала
Частота                                  : 48,0 КГц
Метод сжатия                             : С потерями
Размер потока                            : 1,88 Мбайт (9%)
Выравнивание                             : Соединение по промежуткам
Продолжительность промежутка             : 24  мс. (0,60 видеокадр)

Общее
Полное имя                               : D:МультфильмыАркадий Паровозов13_Molniya.avi
Формат                                   : AVI
Формат/Информация                        : Audio Video Interleave
Размер файла                             : 21,3 Мбайт
Продолжительность                        : 2 м. 4 с.
Общий поток                              : 1430 Кбит/сек
Программа кодирования                    : Lavf52.94.0

Видео
Идентификатор                            : 0
Формат                                   : xvid
Идентификатор кодека                     : xvid
Продолжительность                        : 2 м. 4 с.
Битрейт                                  : 1289 Кбит/сек
Ширина                                   : 640 пикселей
Высота                                   : 480 пикселей
Соотношение сторон                       : 4:3
Частота кадров                           : 25,000 кадров/сек
Бит/(Пиксели*Кадры)                      : 0.168
Размер потока                            : 19,2 Мбайт (90%)

Аудио
Идентификатор                            : 1
Формат                                   : MPEG Audio
Версия формата                           : Version 1
Профиль формата                          : Layer 3
Режим                                    : Joint stereo
Расширение режима                        : MS Stereo
Идентификатор кодека                     : 55
Идентификатор кодека/Подсказка           : MP3
Продолжительность                        : 2 м. 4 с.
Вид битрейта                             : Постоянный
Битрейт                                  : 128 Кбит/сек
Каналы                                   : 2 канала
Частота                                  : 48,0 КГц
Метод сжатия                             : С потерями
Размер потока                            : 1,91 Мбайт (9%)
Выравнивание                             : Соединение по промежуткам
Продолжительность промежутка             : 24  мс. (0,60 видеокадр)

Общее
Полное имя                               : D:МультфильмыАркадий Паровозов14_Griby.avi
Формат                                   : AVI
Формат/Информация                        : Audio Video Interleave
Размер файла                             : 21,3 Мбайт
Продолжительность                        : 2 м. 5 с.
Общий поток                              : 1429 Кбит/сек
Программа кодирования                    : Lavf52.94.0

Видео
Идентификатор                            : 0
Формат                                   : xvid
Идентификатор кодека                     : xvid
Продолжительность                        : 2 м. 4 с.
Битрейт                                  : 1289 Кбит/сек
Ширина                                   : 640 пикселей
Высота                                   : 480 пикселей
Соотношение сторон                       : 4:3
Частота кадров                           : 25,000 кадров/сек
Бит/(Пиксели*Кадры)                      : 0.168
Размер потока                            : 19,2 Мбайт (90%)

Аудио
Идентификатор                            : 1
Формат                                   : MPEG Audio
Версия формата                           : Version 1
Профиль формата                          : Layer 3
Режим                                    : Joint stereo
Расширение режима                        : MS Stereo
Идентификатор кодека                     : 55
Идентификатор кодека/Подсказка           : MP3
Продолжительность                        : 2 м. 5 с.
Вид битрейта                             : Постоянный
Битрейт                                  : 128 Кбит/сек
Каналы                                   : 2 канала
Частота                                  : 48,0 КГц
Метод сжатия                             : С потерями
Размер потока                            : 1,91 Мбайт (9%)
Выравнивание                             : Соединение по промежуткам
Продолжительность промежутка             : 24  мс. (0,60 видеокадр)

Общее
Полное имя                               : D:МультфильмыАркадий Паровозов15_Les_zimou.avi
Формат                                   : AVI
Формат/Информация                        : Audio Video Interleave
Размер файла                             : 21,3 Мбайт
Продолжительность                        : 2 м. 5 с.
Общий поток                              : 1431 Кбит/сек
Программа кодирования                    : Lavf52.94.0

Видео
Идентификатор                            : 0
Формат                                   : xvid
Идентификатор кодека                     : xvid
Продолжительность                        : 2 м. 4 с.
Битрейт                                  : 1290 Кбит/сек
Ширина                                   : 640 пикселей
Высота                                   : 480 пикселей
Соотношение сторон                       : 4:3
Частота кадров                           : 25,000 кадров/сек
Бит/(Пиксели*Кадры)                      : 0.168
Размер потока                            : 19,2 Мбайт (90%)

Аудио
Идентификатор                            : 1
Формат                                   : MPEG Audio
Версия формата                           : Version 1
Профиль формата                          : Layer 3
Режим                                    : Joint stereo
Расширение режима                        : MS Stereo
Идентификатор кодека                     : 55
Идентификатор кодека/Подсказка           : MP3
Продолжительность                        : 2 м. 5 с.
Вид битрейта                             : Постоянный
Битрейт                                  : 128 Кбит/сек
Каналы                                   : 2 канала
Частота                                  : 48,0 КГц
Метод сжатия                             : С потерями
Размер потока                            : 1,91 Мбайт (9%)
Выравнивание                             : Соединение по промежуткам
Продолжительность промежутка             : 24  мс. (0,60 видеокадр)
Общее
Полное имя                               : D:МультфильмыАркадий Паровозов16_Sanki.avi
Формат                                   : AVI
Формат/Информация                        : Audio Video Interleave
Размер файла                             : 21,3 Мбайт
Продолжительность                        : 2 м. 5 с.
Общий поток                              : 1429 Кбит/сек
Программа кодирования                    : Lavf52.94.0

Видео
Идентификатор                            : 0
Формат                                   : xvid
Идентификатор кодека                     : xvid
Продолжительность                        : 2 м. 4 с.
Битрейт                                  : 1288 Кбит/сек
Ширина                                   : 640 пикселей
Высота                                   : 480 пикселей
Соотношение сторон                       : 4:3
Частота кадров                           : 25,000 кадров/сек
Бит/(Пиксели*Кадры)                      : 0.168
Размер потока                            : 19,2 Мбайт (90%)

Аудио
Идентификатор                            : 1
Формат                                   : MPEG Audio
Версия формата                           : Version 1
Профиль формата                          : Layer 3
Режим                                    : Joint stereo
Расширение режима                        : MS Stereo
Идентификатор кодека                     : 55
Идентификатор кодека/Подсказка           : MP3
Продолжительность                        : 2 м. 5 с.
Вид битрейта                             : Постоянный
Битрейт                                  : 128 Кбит/сек
Каналы                                   : 2 канала
Частота                                  : 48,0 КГц
Метод сжатия                             : С потерями
Размер потока                            : 1,91 Мбайт (9%)
Выравнивание                             : Соединение по промежуткам
Продолжительность промежутка             : 24  мс. (0,60 видеокадр)

Общее
Полное имя                               : D:МультфильмыАркадий Паровозов17_Ne_kasautes_jleznux_predmetov.avi
Формат                                   : AVI
Формат/Информация                        : Audio Video Interleave
Размер файла                             : 26,1 Мбайт
Продолжительность                        : 2 м. 4 с.
Общий поток                              : 1761 Кбит/сек
Программа кодирования                    : Lavf52.94.0

Видео
Идентификатор                            : 0
Формат                                   : xvid
Идентификатор кодека                     : xvid
Продолжительность                        : 2 м. 4 с.
Битрейт                                  : 1620 Кбит/сек
Ширина                                   : 640 пикселей
Высота                                   : 480 пикселей
Соотношение сторон                       : 4:3
Частота кадров                           : 25,000 кадров/сек
Бит/(Пиксели*Кадры)                      : 0.211
Размер потока                            : 24,0 Мбайт (92%)

Аудио
Идентификатор                            : 1
Формат                                   : MPEG Audio
Версия формата                           : Version 1
Профиль формата                          : Layer 3
Режим                                    : Joint stereo
Расширение режима                        : MS Stereo
Идентификатор кодека                     : 55
Идентификатор кодека/Подсказка           : MP3
Продолжительность                        : 2 м. 4 с.
Вид битрейта                             : Постоянный
Битрейт                                  : 128 Кбит/сек
Каналы                                   : 2 канала
Частота                                  : 48,0 КГц
Метод сжатия                             : С потерями
Размер потока                            : 1,89 Мбайт (7%)
Выравнивание                             : Соединение по промежуткам
Продолжительность промежутка             : 24  мс. (0,60 видеокадр)

Общее
Полное имя                               : D:МультфильмыАркадий Паровозов18_Metro.avi
Формат                                   : AVI
Формат/Информация                        : Audio Video Interleave
Размер файла                             : 26,5 Мбайт
Продолжительность                        : 2 м. 5 с.
Общий поток                              : 1763 Кбит/сек
Программа кодирования                    : Lavf52.94.0

Видео
Идентификатор                            : 0
Формат                                   : xvid
Идентификатор кодека                     : xvid
Продолжительность                        : 2 м. 5 с.
Битрейт                                  : 1623 Кбит/сек
Ширина                                   : 640 пикселей
Высота                                   : 480 пикселей
Соотношение сторон                       : 4:3
Частота кадров                           : 25,000 кадров/сек
Бит/(Пиксели*Кадры)                      : 0.211
Размер потока                            : 24,4 Мбайт (92%)

Аудио
Идентификатор                            : 1
Формат                                   : MPEG Audio
Версия формата                           : Version 1
Профиль формата                          : Layer 3
Режим                                    : Joint stereo
Расширение режима                        : MS Stereo
Идентификатор кодека                     : 55
Идентификатор кодека/Подсказка           : MP3
Продолжительность                        : 2 м. 5 с.
Вид битрейта                             : Постоянный
Битрейт                                  : 128 Кбит/сек
Каналы                                   : 2 канала
Частота                                  : 48,0 КГц
Метод сжатия                             : С потерями
Размер потока                            : 1,92 Мбайт (7%)
Выравнивание                             : Соединение по промежуткам
Продолжительность промежутка             : 24  мс. (0,60 видеокадр)

Общее
Полное имя                               : D:МультфильмыАркадий Паровозов19_Lekarstvo.avi
Формат                                   : AVI
Формат/Информация                        : Audio Video Interleave
Размер файла                             : 26,5 Мбайт
Продолжительность                        : 2 м. 5 с.
Общий поток                              : 1762 Кбит/сек
Программа кодирования                    : Lavf52.94.0

Видео
Идентификатор                            : 0
Формат                                   : xvid
Идентификатор кодека                     : xvid
Продолжительность                        : 2 м. 5 с.
Битрейт                                  : 1622 Кбит/сек
Ширина                                   : 640 пикселей
Высота                                   : 480 пикселей
Соотношение сторон                       : 4:3
Частота кадров                           : 25,000 кадров/сек
Бит/(Пиксели*Кадры)                      : 0.211
Размер потока                            : 24,3 Мбайт (92%)

Аудио
Идентификатор                            : 1
Формат                                   : MPEG Audio
Версия формата                           : Version 1
Профиль формата                          : Layer 3
Режим                                    : Joint stereo
Расширение режима                        : MS Stereo
Идентификатор кодека                     : 55
Идентификатор кодека/Подсказка           : MP3
Продолжительность                        : 2 м. 5 с.
Вид битрейта                             : Постоянный
Битрейт                                  : 128 Кбит/сек
Каналы                                   : 2 канала
Частота                                  : 48,0 КГц
Метод сжатия                             : С потерями
Размер потока                            : 1,92 Мбайт (7%)
Выравнивание                             : Соединение по промежуткам
Продолжительность промежутка             : 24  мс. (0,60 видеокадр)

Общее
Полное имя                               : D:МультфильмыАркадий Паровозов20_Neznakomec 2.avi
Формат                                   : AVI
Формат/Информация                        : Audio Video Interleave
Размер файла                             : 26,2 Мбайт
Продолжительность                        : 2 м. 5 с.
Общий поток                              : 1761 Кбит/сек
Программа кодирования                    : Lavf52.94.0

Видео
Идентификатор                            : 0
Формат                                   : xvid
Идентификатор кодека                     : xvid
Продолжительность                        : 2 м. 4 с.
Битрейт                                  : 1621 Кбит/сек
Ширина                                   : 640 пикселей
Высота                                   : 480 пикселей
Соотношение сторон                       : 4:3
Частота кадров                           : 25,000 кадров/сек
Бит/(Пиксели*Кадры)                      : 0.211
Размер потока                            : 24,1 Мбайт (92%)

Аудио
Идентификатор                            : 1
Формат                                   : MPEG Audio
Версия формата                           : Version 1
Профиль формата                          : Layer 3
Режим                                    : Joint stereo
Расширение режима                        : MS Stereo
Идентификатор кодека                     : 55
Идентификатор кодека/Подсказка           : MP3
Продолжительность                        : 2 м. 5 с.
Вид битрейта                             : Постоянный
Битрейт                                  : 128 Кбит/сек
Каналы                                   : 2 канала
Частота                                  : 48,0 КГц
Метод сжатия                             : С потерями
Размер потока                            : 1,91 Мбайт (7%)
Выравнивание                             : Соединение по промежуткам
Продолжительность промежутка             : 24  мс. (0,60 видеокадр)

Общее
Полное имя                               : D:МультфильмыАркадий Паровозов21_Obogrevatel.avi
Формат                                   : AVI
Формат/Информация                        : Audio Video Interleave
Размер файла                             : 26,0 Мбайт
Продолжительность                        : 2 м. 4 с.
Общий поток                              : 1756 Кбит/сек
Программа кодирования                    : Lavf52.94.0

Видео
Идентификатор                            : 0
Формат                                   : xvid
Идентификатор кодека                     : xvid
Продолжительность                        : 2 м. 4 с.
Битрейт                                  : 1616 Кбит/сек
Ширина                                   : 640 пикселей
Высота                                   : 480 пикселей
Соотношение сторон                       : 4:3
Частота кадров                           : 25,000 кадров/сек
Бит/(Пиксели*Кадры)                      : 0.210
Размер потока                            : 23,9 Мбайт (92%)

Аудио
Идентификатор                            : 1
Формат                                   : MPEG Audio
Версия формата                           : Version 1
Профиль формата                          : Layer 3
Режим                                    : Joint stereo
Расширение режима                        : MS Stereo
Идентификатор кодека                     : 55
Идентификатор кодека/Подсказка           : MP3
Продолжительность                        : 2 м. 4 с.
Вид битрейта                             : Постоянный
Битрейт                                  : 128 Кбит/сек
Каналы                                   : 2 канала
Частота                                  : 48,0 КГц
Метод сжатия                             : С потерями
Размер потока                            : 1,89 Мбайт (7%)
Выравнивание                             : Соединение по промежуткам
Продолжительность промежутка             : 24  мс. (0,60 видеокадр)

Общее
Полное имя                               : D:МультфильмыАркадий Паровозов22_Ne_zalezat_na_podokonnik.avi
Формат                                   : AVI
Формат/Информация                        : Audio Video Interleave
Размер файла                             : 27,1 Мбайт
Продолжительность                        : 2 м. 9 с.
Общий поток                              : 1760 Кбит/сек
Программа кодирования                    : Lavf52.94.0

Видео
Идентификатор                            : 0
Формат                                   : xvid
Идентификатор кодека                     : xvid
Продолжительность                        : 2 м. 8 с.
Битрейт                                  : 1620 Кбит/сек
Ширина                                   : 640 пикселей
Высота                                   : 480 пикселей
Соотношение сторон                       : 4:3
Частота кадров                           : 25,000 кадров/сек
Бит/(Пиксели*Кадры)                      : 0.211
Размер потока                            : 24,9 Мбайт (92%)

Аудио
Идентификатор                            : 1
Формат                                   : MPEG Audio
Версия формата                           : Version 1
Профиль формата                          : Layer 3
Режим                                    : Joint stereo
Расширение режима                        : MS Stereo
Идентификатор кодека                     : 55
Идентификатор кодека/Подсказка           : MP3
Продолжительность                        : 2 м. 9 с.
Вид битрейта                             : Постоянный
Битрейт                                  : 128 Кбит/сек
Каналы                                   : 2 канала
Частота                                  : 48,0 КГц
Метод сжатия                             : С потерями
Размер потока                            : 1,97 Мбайт (7%)
Выравнивание                             : Соединение по промежуткам
Продолжительность промежутка             : 24  мс. (0,60 видеокадр)

Общее
Полное имя                               : D:МультфильмыАркадий Паровозов23_Klych_ot_kvartiru.avi
Формат                                   : AVI
Формат/Информация                        : Audio Video Interleave
Размер файла                             : 26,0 Мбайт
Продолжительность                        : 2 м. 3 с.
Общий поток                              : 1758 Кбит/сек
Программа кодирования                    : Lavf52.94.0

Видео
Идентификатор                            : 0
Формат                                   : xvid
Идентификатор кодека                     : xvid
Продолжительность                        : 2 м. 3 с.
Битрейт                                  : 1618 Кбит/сек
Ширина                                   : 640 пикселей
Высота                                   : 480 пикселей
Соотношение сторон                       : 4:3
Частота кадров                           : 25,000 кадров/сек
Бит/(Пиксели*Кадры)                      : 0.211
Размер потока                            : 23,9 Мбайт (92%)

Аудио
Идентификатор                            : 1
Формат                                   : MPEG Audio
Версия формата                           : Version 1
Профиль формата                          : Layer 3
Режим                                    : Joint stereo
Расширение режима                        : MS Stereo
Идентификатор кодека                     : 55
Идентификатор кодека/Подсказка           : MP3
Продолжительность                        : 2 м. 3 с.
Вид битрейта                             : Постоянный
Битрейт                                  : 128 Кбит/сек
Каналы                                   : 2 канала
Частота                                  : 48,0 КГц
Метод сжатия                             : С потерями
Размер потока                            : 1,89 Мбайт (7%)
Выравнивание                             : Соединение по промежуткам
Продолжительность промежутка             : 24  мс. (0,60 видеокадр)

Общее
Полное имя                               : D:МультфильмыАркадий Паровозов24_Teplue.golovnue.uboru.avi
Формат                                   : AVI
Формат/Информация                        : Audio Video Interleave
Размер файла                             : 28,4 Мбайт
Продолжительность                        : 2 м. 15 с.
Общий поток                              : 1762 Кбит/сек
Программа кодирования                    : Lavf52.94.0

Видео
Идентификатор                            : 0
Формат                                   : xvid
Идентификатор кодека                     : xvid
Продолжительность                        : 2 м. 14 с.
Битрейт                                  : 1622 Кбит/сек
Ширина                                   : 640 пикселей
Высота                                   : 480 пикселей
Соотношение сторон                       : 4:3
Частота кадров                           : 25,000 кадров/сек
Бит/(Пиксели*Кадры)                      : 0.211
Размер потока                            : 26,1 Мбайт (92%)

Аудио
Идентификатор                            : 1
Формат                                   : MPEG Audio
Версия формата                           : Version 1
Профиль формата                          : Layer 3
Режим                                    : Joint stereo
Расширение режима                        : MS Stereo
Идентификатор кодека                     : 55
Идентификатор кодека/Подсказка           : MP3
Продолжительность                        : 2 м. 15 с.
Вид битрейта                             : Постоянный
Битрейт                                  : 128 Кбит/сек
Каналы                                   : 2 канала
Частота                                  : 48,0 КГц
Метод сжатия                             : С потерями
Размер потока                            : 2,06 Мбайт (7%)
Выравнивание                             : Соединение по промежуткам
Продолжительность промежутка             : 24  мс. (0,60 видеокадр)

Общее
Полное имя                               : D:МультфильмыАркадий Паровозов25_Оsteregautes_sosulek.avi
Формат                                   : AVI
Формат/Информация                        : Audio Video Interleave
Размер файла                             : 28,4 Мбайт
Продолжительность                        : 2 м. 15 с.
Общий поток                              : 1764 Кбит/сек
Программа кодирования                    : Lavf52.94.0

Видео
Идентификатор                            : 0
Формат                                   : xvid
Идентификатор кодека                     : xvid
Продолжительность                        : 2 м. 14 с.
Битрейт                                  : 1624 Кбит/сек
Ширина                                   : 640 пикселей
Высота                                   : 480 пикселей
Соотношение сторон                       : 4:3
Частота кадров                           : 25,000 кадров/сек
Бит/(Пиксели*Кадры)                      : 0.211
Размер потока                            : 26,1 Мбайт (92%)

Аудио
Идентификатор                            : 1
Формат                                   : MPEG Audio
Версия формата                           : Version 1
Профиль формата                          : Layer 3
Режим                                    : Joint stereo
Расширение режима                        : MS Stereo
Идентификатор кодека                     : 55
Идентификатор кодека/Подсказка           : MP3
Продолжительность                        : 2 м. 15 с.
Вид битрейта                             : Постоянный
Битрейт                                  : 128 Кбит/сек
Каналы                                   : 2 канала
Частота                                  : 48,0 КГц
Метод сжатия                             : С потерями
Размер потока                            : 2,06 Мбайт (7%)
Выравнивание                             : Соединение по промежуткам
Продолжительность промежутка             : 24  мс. (0,60 видеокадр)

Общее
Полное имя                               : D:МультфильмыАркадий Паровозов26_Ne_otpluvaute_daleko_ot_berega.avi
Формат                                   : AVI
Формат/Информация                        : Audio Video Interleave
Размер файла                             : 26,0 Мбайт
Продолжительность                        : 2 м. 3 с.
Общий поток                              : 1768 Кбит/сек
Программа кодирования                    : Lavf52.94.0

Видео
Идентификатор                            : 0
Формат                                   : MPEG-4 Visual
Профиль формата                          : Simple@L3
Параметр BVOP формата                    : Нет
Параметр QPel формата                    : Нет
Параметр GMC формата                     : Без точки перехода
Параметр матрицы формата                 : Default (H.263)
Идентификатор кодека                     : XVID
Идентификатор кодека/Подсказка           : XviD
Продолжительность                        : 2 м. 3 с.
Битрейт                                  : 1627 Кбит/сек
Ширина                                   : 640 пикселей
Высота                                   : 480 пикселей
Соотношение сторон                       : 4:3
Частота кадров                           : 25,000 кадров/сек
Цветовое пространство                    : YUV
Субдискретизация насыщенности            : 4:2:0
Битовая глубина                          : 8 бит
Тип развёртки                            : Прогрессивная
Метод сжатия                             : С потерями
Бит/(Пиксели*Кадры)                      : 0.212
Размер потока                            : 23,9 Мбайт (92%)
Библиотека кодирования                   : XviD 1.2.1 (UTC 2008-12-04)

Аудио
Идентификатор                            : 1
Формат                                   : MPEG Audio
Версия формата                           : Version 1
Профиль формата                          : Layer 3
Режим                                    : Joint stereo
Расширение режима                        : MS Stereo
Идентификатор кодека                     : 55
Идентификатор кодека/Подсказка           : MP3
Продолжительность                        : 2 м. 3 с.
Вид битрейта                             : Постоянный
Битрейт                                  : 128 Кбит/сек
Каналы                                   : 2 канала
Частота                                  : 48,0 КГц
Метод сжатия                             : С потерями
Размер потока                            : 1,88 Мбайт (7%)
Выравнивание                             : Соединение по промежуткам
Продолжительность промежутка             : 24  мс. (0,60 видеокадр)

Общее
Полное имя                               : D:МультфильмыАркадий Паровозов27_V_transporte_obiazatelno_derjites_za_poruchni.avi
Формат                                   : AVI
Формат/Информация                        : Audio Video Interleave
Размер файла                             : 31,6 Мбайт
Продолжительность                        : 2 м. 30 с.
Общий поток                              : 1764 Кбит/сек
Программа кодирования                    : Lavf52.94.0

Видео
Идентификатор                            : 0
Формат                                   : MPEG-4 Visual
Профиль формата                          : Simple@L3
Параметр BVOP формата                    : Нет
Параметр QPel формата                    : Нет
Параметр GMC формата                     : Без точки перехода
Параметр матрицы формата                 : Default (H.263)
Идентификатор кодека                     : XVID
Идентификатор кодека/Подсказка           : XviD
Продолжительность                        : 2 м. 29 с.
Битрейт                                  : 1624 Кбит/сек
Ширина                                   : 640 пикселей
Высота                                   : 480 пикселей
Соотношение сторон                       : 4:3
Частота кадров                           : 25,000 кадров/сек
Цветовое пространство                    : YUV
Субдискретизация насыщенности            : 4:2:0
Битовая глубина                          : 8 бит
Тип развёртки                            : Прогрессивная
Метод сжатия                             : С потерями
Бит/(Пиксели*Кадры)                      : 0.211
Размер потока                            : 29,0 Мбайт (92%)
Библиотека кодирования                   : XviD 1.2.1 (UTC 2008-12-04)

Аудио
Идентификатор                            : 1
Формат                                   : MPEG Audio
Версия формата                           : Version 1
Профиль формата                          : Layer 3
Режим                                    : Joint stereo
Расширение режима                        : MS Stereo
Идентификатор кодека                     : 55
Идентификатор кодека/Подсказка           : MP3
Продолжительность                        : 2 м. 30 с.
Вид битрейта                             : Постоянный
Битрейт                                  : 128 Кбит/сек
Каналы                                   : 2 канала
Частота                                  : 48,0 КГц
Метод сжатия                             : С потерями
Размер потока                            : 2,29 Мбайт (7%)
Выравнивание                             : Соединение по промежуткам
Продолжительность промежутка             : 24  мс. (0,60 видеокадр)






   Похожие торренты   Торрент   Размер 
В этой теме нет новых непрочитанных сообщений. Аркадий Паровозов спешит на помощь [01-55] (2012-2014) WEBRip

537 | 26

1.09 ГБ

В этой теме нет новых непрочитанных сообщений. Посейдон спешит на помощь (1977) DVDRip от Киномагия

13 | 21

1.37 ГБ

В этой теме нет новых непрочитанных сообщений. Коломбо: Стивен Спилберг спешит на помощь / Columbo: Mind Over Mayhem (1974) DVDRip от Киномагия l P2

213 | 6

1.15 ГБ

В этой теме нет новых непрочитанных сообщений. Рожденные в СССР. Аркадий Арканов (2013) SATRip

4 | 5

669.73 МБ

В этой теме нет новых непрочитанных сообщений. Скорая помощь [01-11 из 16] (2013) SATRip от Files-x

85 | 201

5.91 ГБ

В этой теме нет новых непрочитанных сообщений. Скорая помощь [01-12 из 16] (2013) SATRip от Files-x

108 | 167

6.45 ГБ

В этой теме нет новых непрочитанных сообщений. Скорая помощь [01-16 из 16] (2013) SATRip от Files-x

130 | 58

8.6 ГБ




Вы не можете начинать темы
Вы не можете отвечать на сообщения
Вы не можете редактировать свои сообщения
Вы не можете удалять свои сообщения
Вы не можете добавлять вложения

Перейти:  
Для Мосгорсуда, Роскомнадзора и рекламодателей: mosgorsud-torrent[собачка]yandex.ru
 Вход
ppkBB3cker v.2 © 2008-2014 @ PPK
[ Time : 0.027s | 14 Queries | GZIP : Off ]

Торрент трекер RUTOR.IN, Не можете зайти на rutor.org? Какой новый адрес рутор? Какое зеркало рутор? Не работает rutor.org и зеркала? Тогда наш торрент специально для вас. Rutor.in неофициальное зеркало rutor. В случае если у Вас заблокирован rutor или вдруг Вы не можете на него зайти, то Вы без труда сможете скачать бесплатно и без рекламы последние новинки кино, игр, сериалов и прочего у нас, на Rutor.in. Не нужно использовать прокси, чтобы зайти на рутор, достаточно воспользоваться нашим ресурсом. Все новые фильмы, игры, сериалы, книги и музыка за 2013 и 2014 годы через торрент бесплатно. Скачивайте фильмы в хорошем качестве, игры для пк, xbox, playstation без регистрации. У нас вы найдете новые Зарубежные сериалы и Русские сериалы 2013, 2014, 2015 годов. Оставайтесь с нами, качайте любимые фильмы, игры, сериалы, книги и музыку.