img image001 image001 image001 image001 image001 image001 image001 image001 image001 image001 image001 image001 image001 image001 image001

Planets Sun Sun Sun
Статистика раздачи
Автор: Снежана | Размер: 8.9 ГБ | Добавлен: 27 июл 2013
Раздают: 177    Качают: 4
Скачать торрент
Скачать торрент
Описание торрента

СообщениеДобавлено: 27 июл 2013 

Король Лев

The Lion King

«The Circle of Life»




#77
Год выпуска: 1994
Страна: США
Жанр: мультфильм, мюзикл, драма, приключения, семейный...
Продолжительность: 01:28:23
Перевод: Профессиональный (дублированный)
Субтитры: Russian (UTF-8), English (UTF-8)

Режиссер: Роджер Аллерс, Роб Минкофф
Сценарий: Ирен Меччи, Джонатан Робертс, Линда Вулвертон, ...
Продюсер: Дон Хан, Элис Дьюи, Сара МакАртур, ...
Композитор: Ханс Циммер
Художник: Крис Сандерс, Энди Гэскилл
Монтаж: Иван Биланкио

В ролях: Мэттью Бродерик / Matthew Broderick (Adult Simba, озвучка), Джереми Айронс / Jeremy Irons (Scar, озвучка), Нэйтан Лейн / Nathan Lane (Timon, озвучка), Эрни Сабелла / Ernie Sabella (Pumbaa, озвучка), Джеймс Эрл Джонс / James Earl Jones (Mufasa, озвучка), Мойра Келли / Moira Kelly (Adult Nala, озвучка), Роуэн Эткинсон / Rowan Atkinson (Zazu, озвучка), Вупи Голдберг / Whoopi Goldberg (Shenzi, озвучка)


Описание: У величественного Короля-Льва Муфасы рождается наследник по имени Симба. Уже в детстве любознательный малыш становится жертвой интриг своего завистливого дяди Шрама, мечтающего о власти.Симба познаёт горе утраты, предательство и изгнание, но в конце концов обретает верных друзей и находит любимую. Закалённый испытаниями, он в нелёгкой борьбе отвоёвывает своё законное место в «Круге жизни», осознав, что значит быть настоящим Королём.


Бюджет: $45 000 000
Сборы в США: $422 783 777
Сборы в мире: + $528 800 000 = $951 583 777
Сборы в России: $6 622 892
Зрители: США 89.1 млн , Германия 11.3 млн , Франция 10.1 млн
Премьера (мир): 15 июня 1994, ...
Премьера (РФ): 22 марта 2012
Релиз на DVD: 24 апреля 2012, «Уолт Дисней Компани СНГ», ...
Релиз на Blu-Ray: 24 апреля 2012, «Уолт Дисней Компани СНГ», ...
Рейтинг MPAA: Нет возрастных ограничений




Качество: BDRip.1080р
Формат: MKV
Видео кодек: AVC
Аудио кодеk: AC3
Видео: 1920x1080 (16:9), 23.976 fps, AVC, 9 996 Kbps

Аудио #1: AC3, 448 Kbps, 48.0 KHz, 6 ch Rus. (Дубляж СЕЕ)
Аудио #2: AC3, 448 Kbps, 48.0 KHz, 6 ch Ukr. (Дубляж СЕЕ)
Аудио #3: AC3, 384 Kbps, 48.0 KHz, 6 ch (DVO - П.Гланц и Казакова)
Аудио #4: AC3, 384 Kbps, 48.0 KHz, 6 ch (AVO - Гаврилов ранний)
Аудио #5: AC3, 384 Kbps, 48.0 KHz, 6 ch (AVO - Гаврилов позний)
Аудио #6: AC3, 384 Kbps, 48.0 KHz, 6 ch (AVO - Живов)
Аудио #7: AC3, 448 Kbps, 48.0 KHz, 6 ch (AVO - Латышев)
Аудио #8: AC3, 384 Kbps, 48.0 KHz, 6 ch (AVO - Яковлев)
Аудио #9: AC3, 384 Kbps, 48.0 KHz, 6 ch (AVO - Кущак)
Аудио #10: AC3, 192 Kbps, 48.0 KHz, 1 ch (AVO - Визгунов)
Аудио #11: AC3, 192 Kbps, 48.0 KHz, 1 ch (AVO - Кашкин)
Аудио #12: AC3, 384 Kbps, 48.0 KHz, 6 ch (English)





Лог:
- x264 [info]: frame I:936 Avg QP:10.31 size:249007
- x264 [info]: frame P:44970 Avg QP:12.62 size: 85035
- x264 [info]: frame B:81252 Avg QP:13.65 size: 31546

General
Complete name : Korol.Lev.1994.BDRip.1080р.mkv
Format : Matroska
File size : 8.90 GiB
Duration : 1h 28mn
Overall bit rate : 14.4 Mbps
Encoded date : UTC 2013-06-25 05:45:08
Writing application : mkvmerge v6.1.0 ('Old Devil') built on Mar 2 2013 14:32:37
Writing library : libebml v1.3.0 + libmatroska v1.4.0

Video
ID : 1
Format : AVC
Format/Info : Advanced Video Codec
Format profile : High@L4.1
Format settings, CABAC : Yes
Format settings, ReFrames : 4 frames
Muxing mode : Container profile=Unknown@4.1
Codec ID : V_MPEG4/ISO/AVC
Duration : 1h 28mn
Bit rate : 9 996 Kbps
Width : 1 920 pixels
Height : 1 080 pixels
Display aspect ratio : 16:9
Frame rate : 23.976 fps
Color space : YUV
Chroma subsampling : 4:2:0
Bit depth : 8 bits
Scan type : Progressive
Bits/(Pixel*Frame) : 0.201
Stream size : 5.99 GiB (67%)
Writing library : x264 core 133 r2334 a3ac64b
Encoding settings : cabac=1 / ref=4 / deblock=1:0:0 / analyse=0x3:0x133 / me=umh / subme=10 / psy=1 / psy_rd=1.00:0.00 / mixed_ref=1 / me_range=32 / chroma_me=1 / trellis=2 / 8x8dct=1 / cqm=0 / deadzone=21,11 / fast_pskip=0 / chroma_qp_offset=-2 / threads=6 / lookahead_threads=1 / sliced_threads=0 / nr=0 / decimate=1 / interlaced=0 / bluray_compat=0 / constrained_intra=0 / bframes=10 / b_pyramid=2 / b_adapt=2 / b_bias=0 / direct=3 / weightb=1 / open_gop=0 / weightp=2 / keyint=240 / keyint_min=24 / scenecut=40 / intra_refresh=0 / rc_lookahead=50 / rc=2pass / mbtree=0 / bitrate=9996 / ratetol=2.0 / qcomp=1.00 / qpmin=0 / qpmax=51 / qpstep=4 / cplxblur=20.0 / qblur=0.5 / vbv_maxrate=40000 / vbv_bufsize=40000 / nal_hrd=none / ip_ratio=1.40 / pb_ratio=1.30 / aq=1:1.00
Color primaries : BT.709-5, BT.1361, IEC 61966-2-4, SMPTE RP177
Transfer characteristics : BT.709-5, BT.1361
Matrix coefficients : BT.709-5, BT.1361, IEC 61966-2-4 709, SMPTE RP177

Audio #1
ID : 2
Format : AC-3
Format/Info : Audio Coding 3
Mode extension : CM (complete main)
Codec ID : A_AC3
Duration : 1h 28mn
Bit rate mode : Constant
Bit rate : 448 Kbps
Channel(s) : 6 channels
Channel positions : Front: L C R, Side: L R, LFE
Sampling rate : 48.0 KHz
Bit depth : 16 bits
Stream size : 283 MiB (3%)
Title : Дубляж СЕЕ
Language : Russian

Audio #2
ID : 3
Format : AC-3
Format/Info : Audio Coding 3
Mode extension : CM (complete main)
Codec ID : A_AC3
Duration : 1h 28mn
Bit rate mode : Constant
Bit rate : 448 Kbps
Channel(s) : 6 channels
Channel positions : Front: L C R, Side: L R, LFE
Sampling rate : 48.0 KHz
Bit depth : 16 bits
Stream size : 283 MiB (3%)
Title : Дубляж СЕЕ
Language : Ukrainian

Audio #3
ID : 4
Format : AC-3
Format/Info : Audio Coding 3
Mode extension : CM (complete main)
Codec ID : A_AC3
Duration : 1h 28mn
Bit rate mode : Constant
Bit rate : 384 Kbps
Channel(s) : 6 channels
Channel positions : Front: L C R, Side: L R, LFE
Sampling rate : 48.0 KHz
Bit depth : 16 bits
Stream size : 243 MiB (3%)
Title : DVO - П.Гланц и Казакова
Language : Russian

Audio #4
ID : 5
Format : AC-3
Format/Info : Audio Coding 3
Mode extension : CM (complete main)
Codec ID : A_AC3
Duration : 1h 28mn
Bit rate mode : Constant
Bit rate : 384 Kbps
Channel(s) : 6 channels
Channel positions : Front: L C R, Side: L R, LFE
Sampling rate : 48.0 KHz
Bit depth : 16 bits
Stream size : 243 MiB (3%)
Title : AVO - GAVRILOV _ ранний
Language : Russian

Audio #5
ID : 6
Format : AC-3
Format/Info : Audio Coding 3
Mode extension : CM (complete main)
Codec ID : A_AC3
Duration : 1h 28mn
Bit rate mode : Constant
Bit rate : 384 Kbps
Channel(s) : 6 channels
Channel positions : Front: L C R, Side: L R, LFE
Sampling rate : 48.0 KHz
Bit depth : 16 bits
Stream size : 243 MiB (3%)
Title : AVO - GAVRILOV _позний
Language : Russian

Audio #6
ID : 7
Format : AC-3
Format/Info : Audio Coding 3
Mode extension : CM (complete main)
Codec ID : A_AC3
Duration : 1h 28mn
Bit rate mode : Constant
Bit rate : 384 Kbps
Channel(s) : 6 channels
Channel positions : Front: L C R, Side: L R, LFE
Sampling rate : 48.0 KHz
Bit depth : 16 bits
Stream size : 243 MiB (3%)
Title : AVO - Zhivov
Language : Russian

Audio #7
ID : 8
Format : AC-3
Format/Info : Audio Coding 3
Mode extension : CM (complete main)
Codec ID : A_AC3
Duration : 1h 28mn
Bit rate mode : Constant
Bit rate : 448 Kbps
Channel(s) : 6 channels
Channel positions : Front: L C R, Side: L R, LFE
Sampling rate : 48.0 KHz
Bit depth : 16 bits
Stream size : 283 MiB (3%)
Title : AVO - Latyshev
Language : Russian

Audio #8
ID : 9
Format : AC-3
Format/Info : Audio Coding 3
Mode extension : CM (complete main)
Codec ID : A_AC3
Duration : 1h 28mn
Bit rate mode : Constant
Bit rate : 384 Kbps
Channel(s) : 6 channels
Channel positions : Front: L C R, Side: L R, LFE
Sampling rate : 48.0 KHz
Bit depth : 16 bits
Stream size : 243 MiB (3%)
Title : AVO - Yakovlev
Language : Russian

Audio #9
ID : 10
Format : AC-3
Format/Info : Audio Coding 3
Mode extension : CM (complete main)
Codec ID : A_AC3
Duration : 1h 28mn
Bit rate mode : Constant
Bit rate : 384 Kbps
Channel(s) : 6 channels
Channel positions : Front: L C R, Side: L R, LFE
Sampling rate : 48.0 KHz
Bit depth : 16 bits
Stream size : 243 MiB (3%)
Title : AVO - Kuschak
Language : Russian

Audio #10
ID : 11
Format : AC-3
Format/Info : Audio Coding 3
Mode extension : CM (complete main)
Codec ID : A_AC3
Duration : 1h 28mn
Bit rate mode : Constant
Bit rate : 192 Kbps
Channel(s) : 1 channel
Channel positions : Front: C
Sampling rate : 48.0 KHz
Bit depth : 16 bits
Stream size : 121 MiB (1%)
Title : AVO - Vizgunov
Language : Russian

Audio #11
ID : 12
Format : AC-3
Format/Info : Audio Coding 3
Mode extension : CM (complete main)
Codec ID : A_AC3
Duration : 1h 28mn
Bit rate mode : Constant
Bit rate : 192 Kbps
Channel(s) : 1 channel
Channel positions : Front: C
Sampling rate : 48.0 KHz
Bit depth : 16 bits
Stream size : 121 MiB (1%)
Title : AVO - Kashkin
Language : Russian

Audio #12
ID : 13
Format : AC-3
Format/Info : Audio Coding 3
Mode extension : CM (complete main)
Codec ID : A_AC3
Duration : 1h 28mn
Bit rate mode : Constant
Bit rate : 384 Kbps
Channel(s) : 6 channels
Channel positions : Front: L C R, Side: L R, LFE
Sampling rate : 48.0 KHz
Bit depth : 16 bits
Stream size : 243 MiB (3%)
Language : English

Text #1
ID : 14
Format : UTF-8
Codec ID : S_TEXT/UTF8
Codec ID/Info : UTF-8 Plain Text
Language : Russian

Text #2
ID : 15
Format : UTF-8
Codec ID : S_TEXT/UTF8
Codec ID/Info : UTF-8 Plain Text
Title : - SONGS
Language : Russian

Text #3
ID : 16
Format : UTF-8
Codec ID : S_TEXT/UTF8
Codec ID/Info : UTF-8 Plain Text
Language : English

Text #4
ID : 17
Format : UTF-8
Codec ID : S_TEXT/UTF8
Codec ID/Info : UTF-8 Plain Text
Title : - SDH
Language : English

Menu
00:00:00.000 : en:00:00:00.000
00:04:40.071 : en:00:04:40.071
00:08:10.406 : en:00:08:10.406
00:11:28.979 : en:00:11:28.979
00:14:09.557 : en:00:14:09.557
00:17:51.028 : en:00:17:51.028
00:22:54.748 : en:00:22:54.748
00:25:36.116 : en:00:25:36.116
00:30:24.196 : en:00:30:24.196
00:35:52.150 : en:00:35:52.150
00:40:14.077 : en:00:40:14.077
00:41:14.429 : en:00:41:14.429
00:44:16.945 : en:00:44:16.945
00:48:20.563 : en:00:48:20.563
00:50:07.211 : en:00:50:07.211
00:53:14.773 : en:00:53:14.773
00:57:50.842 : en:00:57:50.842
01:00:56.568 : en:01:00:56.568
01:02:32.331 : en:01:02:32.331
01:08:49.625 : en:01:08:49.625
01:12:41.023 : en:01:12:41.023
01:16:42.305 : en:01:16:42.305
01:20:45.131 : en:01:20:45.131
01:23:23.872 : en:01:23:23.872





Релиз группы:



   Похожие торренты   Торрент   Размер 
В этой теме нет новых непрочитанных сообщений. Король Лев / The Lion King (1994) BDRip 1080p | 60 fps | D, A

251 | 30

7.94 ГБ

В этой теме нет новых непрочитанных сообщений. Король Лев / The Lion King (1994) BDRip 1080p

16 | 7

10.82 ГБ

В этой теме нет новых непрочитанных сообщений. Король Лев / The Lion King (1994) BDRip 1080p

141 | 17

4.37 ГБ

В этой теме нет новых непрочитанных сообщений. Король Лев 3: Хакуна Матата / The Lion King 1½ (2004) BDRip 1080p от Freeisland

51 | 15

5.96 ГБ

В этой теме нет новых непрочитанных сообщений. Король лев / The Lion King (1994) BDRip 1080p от marcury

55 | 5

12.52 ГБ

В этой теме нет новых непрочитанных сообщений. Король Лев 3D / The Lion King (1994) BDRip 1080p | 3D-Video

69 | 15

5.17 ГБ

В этой теме нет новых непрочитанных сообщений. Король Лев 3D / The Lion King (1994) BDRip 1080p | 3D-Video / Анаглиф

45 | 6

5.04 ГБ




Вы не можете начинать темы
Вы не можете отвечать на сообщения
Вы не можете редактировать свои сообщения
Вы не можете удалять свои сообщения
Вы не можете добавлять вложения

Перейти:  
Для Мосгорсуда, Роскомнадзора и рекламодателей: mosgorsud-torrent[собачка]yandex.ru
 Вход
ppkBB3cker v.2 © 2008-2014 @ PPK
[ Time : 0.036s | 16 Queries | GZIP : On ]

Торрент трекер RUTOR.IN, Не можете зайти на rutor.org? Какой новый адрес рутор? Какое зеркало рутор? Не работает rutor.org и зеркала? Тогда наш торрент специально для вас. Rutor.in неофициальное зеркало rutor. В случае если у Вас заблокирован rutor или вдруг Вы не можете на него зайти, то Вы без труда сможете скачать бесплатно и без рекламы последние новинки кино, игр, сериалов и прочего у нас, на Rutor.in. Не нужно использовать прокси, чтобы зайти на рутор, достаточно воспользоваться нашим ресурсом. Все новые фильмы, игры, сериалы, книги и музыка за 2013 и 2014 годы через торрент бесплатно. Скачивайте фильмы в хорошем качестве, игры для пк, xbox, playstation без регистрации. У нас вы найдете новые Зарубежные сериалы и Русские сериалы 2013, 2014, 2015 годов. Оставайтесь с нами, качайте любимые фильмы, игры, сериалы, книги и музыку.