img image001 image001 image001 image001 image001 image001 image001 image001 image001 image001 image001 image001 image001 image001 image001

Planets Sun Sun Sun
Статистика раздачи
Автор: Снежана | Размер: 7.95 ГБ | Добавлен: 27 июл 2013
Раздают: 145    Качают: 13
Скачать торрент
Скачать торрент
Описание торрента

СообщениеДобавлено: 27 июл 2013 

Король Лев 2: Гордость Симбы

The Lion King II: Simba's Pride

«The Circle of Life Continues...»




#77
Год выпуска: 1998
Страна: США , Австралия
Жанр: мультфильм, мюзикл, мелодрама, приключения, семейный...
Продолжительность: 01:20:49
Перевод: Профессиональный (дублированный)
Субтитры: Russian (UTF-8), Ukrainian (UTF-8), English (UTF-8)

Режиссер: Даррел Руни, Роб ЛаДука
Сценарий: Флип Коблер, Синди Маркус, Дженни Уингфилд, ...
Продюсер: Джаннин Пассел
Композитор: Ник Гленни-Смит
Художник: Фред Вартер
Монтаж: Питер Лонсдэйл

В ролях: Мэттью Бродерик / Matthew Broderick (Simba, озвучка), Нив Кэмпбелл / Neve Campbell (Adult Kiara, озвучка), Энди Дик / Andy Dick (Nuka, озвучка), Роберт Гийом / Robert Guillaume (Rafiki, озвучка), Джеймс Эрл Джонс / James Earl Jones (Mufasa, озвучка), Мойра Келли / Moira Kelly (Nala, озвучка), Нэйтан Лейн / Nathan Lane (Timon, озвучка), Джейсон Мэрсден / Jason Marsden (Adult Kovu, озвучка)


Описание: Много времени утекло с тех пор, как лев Симба сверг своего злого дядю Шрама и вернул трон короля саванны. У него и королевы Налы уже подрастает дочь — принцесса Киара.Однако порученная легкомысленным заботам наших старых знакомых Тимона и Пумбы, проказливая и непослушная Киара пока никак не похожа на будущую королеву. Однажды сбежав в Запретную Землю, она встречает там львенка Кову, который становится ее лучшим другом.Да только принцесса не знает, что эта дружба может стоить ей короны! Кову — наследник Шрама, и пусть он не пошел в старого интригана, его мать Зира спит и видит, как бы усадить сына на трон.И чем прочнее дружба между Киарой и Кову, тем гуще тучи над племенем Симбы…

Премьера (мир): 27 октября 1998, ...
Релиз на DVD: 24 апреля 2012, «Уолт Дисней Компани СНГ», ...
Релиз на Blu-Ray: 24 апреля 2012, «Уолт Дисней Компани СНГ», ...
Рейтинг MPAA: Нет возрастных ограничений




Качество: BDRip.1080р
Формат: MKV
Видео кодек: AVC
Аудио кодеk: AC3
Видео: 1920x1080 (16:9), 23.976 fps, AVC, 11.3 Mbps

Аудио #1: AC3, 640 Kbps, 48.0 KHz, 6 ch (Дубляж СЕЕ)
Аудио #2: AC3, 448 Kbps, 48.0 KHz, 6 ch (MVO - Карусель)
Аудио #3: AC3, 448 Kbps, 48.0 KHz, 6 ch (AVO - Ю.Живов)
Аудио #4: AC3, 448 Kbps, 48.0 KHz, 6 ch (AVO - П.Гланц)
Аудио #5: AC3, 192 Kbps, 48.0 KHz, 2 ch (AVO - Н.Антонов)
Аудио #6: AC3, 192 Kbps, 48.0 KHz, 2 ch (AVO - С.Визгунов)
Аудио #7: AC3, 448 Kbps, 48.0 KHz, 6 ch (English)





Лог:
- x264 [info]: frame I:884 Avg QP:11.10 size:251444
- x264 [info]: frame P:40699 Avg QP:13.22 size:101481
- x264 [info]: frame B:74697 Avg QP:14.54 size: 33168

General
Complete name : Korol.lev.2.1998.BDRip.1080р.mkv
Format : Matroska
File size : 7.95 GiB
Duration : 1h 20mn
Overall bit rate : 14.1 Mbps
Encoded date : UTC 2013-06-25 18:09:31
Writing application : mkvmerge v6.1.0 ('Old Devil') built on Mar 2 2013 14:32:37
Writing library : libebml v1.3.0 + libmatroska v1.4.0

Video
ID : 1
Format : AVC
Format/Info : Advanced Video Codec
Format profile : High@L4.1
Format settings, CABAC : Yes
Format settings, ReFrames : 4 frames
Muxing mode : Container profile=Unknown@4.1
Codec ID : V_MPEG4/ISO/AVC
Duration : 1h 20mn
Bit rate : 11.3 Mbps
Width : 1 920 pixels
Height : 1 080 pixels
Display aspect ratio : 16:9
Frame rate : 23.976 fps
Color space : YUV
Chroma subsampling : 4:2:0
Bit depth : 8 bits
Scan type : Progressive
Bits/(Pixel*Frame) : 0.227
Stream size : 6.20 GiB (78%)
Writing library : x264 core 133 r2334 a3ac64b
Encoding settings : cabac=1 / ref=4 / deblock=1:0:0 / analyse=0x3:0x133 / me=umh / subme=10 / psy=1 / psy_rd=1.00:0.00 / mixed_ref=1 / me_range=32 / chroma_me=1 / trellis=2 / 8x8dct=1 / cqm=0 / deadzone=21,11 / fast_pskip=0 / chroma_qp_offset=-2 / threads=6 / lookahead_threads=1 / sliced_threads=0 / nr=0 / decimate=1 / interlaced=0 / bluray_compat=0 / constrained_intra=0 / bframes=10 / b_pyramid=2 / b_adapt=2 / b_bias=0 / direct=3 / weightb=1 / open_gop=0 / weightp=2 / keyint=240 / keyint_min=24 / scenecut=40 / intra_refresh=0 / rc_lookahead=50 / rc=2pass / mbtree=0 / bitrate=11266 / ratetol=2.0 / qcomp=1.00 / qpmin=0 / qpmax=51 / qpstep=4 / cplxblur=20.0 / qblur=0.5 / vbv_maxrate=40000 / vbv_bufsize=40000 / nal_hrd=none / ip_ratio=1.40 / pb_ratio=1.30 / aq=1:1.00
Color primaries : BT.709-5, BT.1361, IEC 61966-2-4, SMPTE RP177
Transfer characteristics : BT.709-5, BT.1361
Matrix coefficients : BT.709-5, BT.1361, IEC 61966-2-4 709, SMPTE RP177

Audio #1
ID : 2
Format : AC-3
Format/Info : Audio Coding 3
Mode extension : CM (complete main)
Codec ID : A_AC3
Duration : 1h 20mn
Bit rate mode : Constant
Bit rate : 640 Kbps
Channel(s) : 6 channels
Channel positions : Front: L C R, Side: L R, LFE
Sampling rate : 48.0 KHz
Bit depth : 16 bits
Stream size : 370 MiB (5%)
Title : Дубляж BD CEE
Language : Russian

Audio #2
ID : 3
Format : AC-3
Format/Info : Audio Coding 3
Mode extension : CM (complete main)
Codec ID : A_AC3
Duration : 1h 20mn
Bit rate mode : Constant
Bit rate : 448 Kbps
Channel(s) : 6 channels
Channel positions : Front: L C R, Side: L R, LFE
Sampling rate : 48.0 KHz
Bit depth : 16 bits
Stream size : 259 MiB (3%)
Title : MVO - Карусель
Language : Russian

Audio #3
ID : 4
Format : AC-3
Format/Info : Audio Coding 3
Mode extension : CM (complete main)
Codec ID : A_AC3
Duration : 1h 20mn
Bit rate mode : Constant
Bit rate : 448 Kbps
Channel(s) : 6 channels
Channel positions : Front: L C R, Side: L R, LFE
Sampling rate : 48.0 KHz
Bit depth : 16 bits
Stream size : 259 MiB (3%)
Title : AVO - Ю.Живов
Language : Russian

Audio #4
ID : 5
Format : AC-3
Format/Info : Audio Coding 3
Mode extension : CM (complete main)
Codec ID : A_AC3
Duration : 1h 20mn
Bit rate mode : Constant
Bit rate : 448 Kbps
Channel(s) : 6 channels
Channel positions : Front: L C R, Side: L R, LFE
Sampling rate : 48.0 KHz
Bit depth : 16 bits
Stream size : 259 MiB (3%)
Title : AVO - П.Гланц
Language : Russian

Audio #5
ID : 6
Format : AC-3
Format/Info : Audio Coding 3
Mode extension : CM (complete main)
Codec ID : A_AC3
Duration : 1h 20mn
Bit rate mode : Constant
Bit rate : 192 Kbps
Channel(s) : 2 channels
Channel positions : Front: L R
Sampling rate : 48.0 KHz
Bit depth : 16 bits
Stream size : 111 MiB (1%)
Title : AVO - Н.Антонов
Language : Russian

Audio #6
ID : 7
Format : AC-3
Format/Info : Audio Coding 3
Mode extension : CM (complete main)
Codec ID : A_AC3
Duration : 1h 20mn
Bit rate mode : Constant
Bit rate : 192 Kbps
Channel(s) : 2 channels
Channel positions : Front: L R
Sampling rate : 48.0 KHz
Bit depth : 16 bits
Stream size : 111 MiB (1%)
Title : AVO - С.Визгунов
Language : Russian

Audio #7
ID : 8
Format : AC-3
Format/Info : Audio Coding 3
Mode extension : CM (complete main)
Codec ID : A_AC3
Duration : 1h 20mn
Bit rate mode : Constant
Bit rate : 448 Kbps
Channel(s) : 6 channels
Channel positions : Front: L C R, Side: L R, LFE
Sampling rate : 48.0 KHz
Bit depth : 16 bits
Stream size : 259 MiB (3%)
Language : English

Text #1
ID : 9
Format : UTF-8
Codec ID : S_TEXT/UTF8
Codec ID/Info : UTF-8 Plain Text
Title : FORCED
Language : Russian

Text #2
ID : 10
Format : UTF-8
Codec ID : S_TEXT/UTF8
Codec ID/Info : UTF-8 Plain Text
Language : Russian

Text #3
ID : 11
Format : UTF-8
Codec ID : S_TEXT/UTF8
Codec ID/Info : UTF-8 Plain Text
Language : Ukrainian

Text #4
ID : 12
Format : UTF-8
Codec ID : S_TEXT/UTF8
Codec ID/Info : UTF-8 Plain Text
Language : English

Menu
00:00:00.000 : en:00:00:00.000
00:03:33.129 : en:00:03:33.129
00:05:39.005 : en:00:05:39.005
00:09:16.055 : en:00:09:16.055
00:14:21.068 : en:00:14:21.068
00:19:09.690 : en:00:19:09.690
00:21:48.181 : en:00:21:48.181
00:26:53.903 : en:00:26:53.903
00:31:02.944 : en:00:31:02.944
00:33:00.478 : en:00:33:00.478
00:39:56.268 : en:00:39:56.268
00:44:47.101 : en:00:44:47.101
00:45:40.446 : en:00:45:40.446
00:50:37.951 : en:00:50:37.951
00:56:15.830 : en:00:56:15.830
00:59:51.546 : en:00:59:51.546
01:01:24.389 : en:01:01:24.389
01:05:01.439 : en:01:05:01.439
01:12:54.119 : en:01:12:54.119
01:15:20.515 : en:01:15:20.515





Релиз группы:



   Похожие торренты   Торрент   Размер 
В этой теме нет новых непрочитанных сообщений. Король Лев 2. Гордость Симбы / The Lion King II. Simba's Pride (1998) BDRip | D

337 | 14

745.23 МБ

В этой теме нет новых непрочитанных сообщений. Король-лев 2: Гордость Симбы / The Lion King II: Simba's Pride (1998) BDRip от HQCLUB

1175 | 40

1.45 ГБ

В этой теме нет новых непрочитанных сообщений. Король-лев 2: Гордость Симбы / The Lion King II: Simba's Pride (1998) BDRip от HQ-ViDEO

103 | 22

2.54 ГБ

В этой теме нет новых непрочитанных сообщений. Король Лев 2: Гордость Симбы / The Lion King II: Simba's Pride (1998) BDRip [720p] от HQ-ViDEO.

68 | 9

4.37 ГБ

В этой теме нет новых непрочитанных сообщений. Король Лев 2: Гордость Симбы / The Lion King II: Simba's Pride (1998) DVDRip-AVC

55 | 6

1.72 ГБ

В этой теме нет новых непрочитанных сообщений. Король лев 2: Гордость Симбы / The Lion King II: Simba's Pride (1998) DVD5

4 | 4

4.29 ГБ

В этой теме нет новых непрочитанных сообщений. Король-лев 2: Гордость Симбы / The Lion King II: Simba's Pride (1998) HDRip | КПК от Generalfilm

51 | 5

266.09 МБ




Вы не можете начинать темы
Вы не можете отвечать на сообщения
Вы не можете редактировать свои сообщения
Вы не можете удалять свои сообщения
Вы не можете добавлять вложения

Перейти:  
Для Мосгорсуда, Роскомнадзора и рекламодателей: mosgorsud-torrent[собачка]yandex.ru
 Вход
ppkBB3cker v.2 © 2008-2014 @ PPK
[ Time : 0.022s | 16 Queries | GZIP : Off ]

Торрент трекер RUTOR.IN, Не можете зайти на rutor.org? Какой новый адрес рутор? Какое зеркало рутор? Не работает rutor.org и зеркала? Тогда наш торрент специально для вас. Rutor.in неофициальное зеркало rutor. В случае если у Вас заблокирован rutor или вдруг Вы не можете на него зайти, то Вы без труда сможете скачать бесплатно и без рекламы последние новинки кино, игр, сериалов и прочего у нас, на Rutor.in. Не нужно использовать прокси, чтобы зайти на рутор, достаточно воспользоваться нашим ресурсом. Все новые фильмы, игры, сериалы, книги и музыка за 2013 и 2014 годы через торрент бесплатно. Скачивайте фильмы в хорошем качестве, игры для пк, xbox, playstation без регистрации. У нас вы найдете новые Зарубежные сериалы и Русские сериалы 2013, 2014, 2015 годов. Оставайтесь с нами, качайте любимые фильмы, игры, сериалы, книги и музыку.