img image001 image001 image001 image001 image001 image001 image001 image001 image001 image001 image001 image001 image001 image001 image001

Planets Sun Sun Sun
Статистика раздачи
Автор: Снежана | Размер: 5.96 ГБ | Добавлен: 27 июл 2013
Раздают: 51    Качают: 15
Скачать торрент
Скачать торрент
Описание торрента

СообщениеДобавлено: 27 июл 2013 

Король Лев 3: Хакуна Матата

The Lion King 1½

«You don't know the ½ of it!»




#77
Год выпуска: 2004
Страна: Австралия , США
Жанр: мультфильм, комедия, приключения, семейный..
Продолжительность: 01:16:14
Перевод: Профессиональный (дублированный)
Субтитры: Russian (UTF-8), Ukrainian (UTF-8), English (UTF-8)

Режиссер: Брэдли Рэймонд
Сценарий: Том Роджерс, Роджер Аллерс, Ирен Меччи, ...
Продюсер: Джордж А. Мендоза, Джейсон ВанБорссум, Майкл Пэкстон
Композитор: Дон Харпер
Художник: Дэннис Греко, Джеймс Джэллего
Монтаж: Джойс Аррастья

В ролях: Нэйтан Лейн / Nathan Lane (Timon, озвучка), Эрни Сабелла / Ernie Sabella (Pumbaa, озвучка), Джули Кавнер / Julie Kavner (Mom, озвучка), Джерри Стиллер / Jerry Stiller (Uncle Max, озвучка), Мэттью Бродерик / Matthew Broderick (Simba, озвучка), Роберт Гийом / Robert Guillaume (Rafiki, озвучка), Мойра Келли / Moira Kelly (Nala, озвучка), Вупи Голдберг / Whoopi Goldberg (Shenzi, озвучка)


Описание: Главными героями мультфильма станут всеобщие любимцы Тимон и Пумба! Вы узнаете об этих закадычных друзьях много нового, например, о том, как они впервые встретились, что за потрясающие приключения вместе прожили и на какие удивительные подвиги их сподвигло знаменитое знакомство с будущем королем саванны Симбой.А также познакомитесь с новыми забавными героями, которые точно не дадут вам скучать — заботливой мамочкой Тимона и его ужасно саркастичным дядей Максом! Скучно не будет!

Премьера (мир): 10 февраля 2004, ...
Релиз на DVD: 24 апреля 2012, «Уолт Дисней Компани СНГ», ...
Релиз на Blu-Ray: 24 апреля 2012, «Уолт Дисней Компани СНГ», ...
Рейтинг MPAA: Нет возрастных ограничений




Качество: BDRip.1080р
Формат: MKV
Видео кодек: AVC
Аудио кодеk: AC3
Видео: 1828x1080 (1.693:1), 23.976 fps, AVC, 8 447 Kbps

Аудио #1: AC3, 640 Kbps, 48.0 KHz, 6 ch (Дубляж CEE)
Аудио #2: AC3, 384 Kbps, 48.0 KHz, 6 ch (DVO)
Аудио #3: AC3, 448 Kbps, 48.0 KHz, 6 ch (AVO - Ю. Живов)
Аудио #4: AC3, 448 Kbps, 48.0 KHz, 6 ch (AVO - А. Алексеев)
Аудио #5: AC3, 384 Kbps, 48.0 KHz, 6 ch (AVO - А. Дольский)
Аудио #6: AC3, 448 Kbps, 48.0 KHz, 6 ch (English)





Лог:
- x264 [info]: frame I:761 Avg QP:11.48 size:295037
- x264 [info]: frame P:33097 Avg QP:13.97 size: 89244
- x264 [info]: frame B:75823 Avg QP:15.18 size: 21662

General
Complete name : Korol.lev.3.2004.BDRip.1080р.mkv
Format : Matroska
File size : 5.96 GiB
Duration : 1h 16mn
Overall bit rate : 11.2 Mbps
Encoded date : UTC 2013-06-26 01:45:42
Writing application : mkvmerge v6.1.0 ('Old Devil') built on Mar 2 2013 14:32:37
Writing library : libebml v1.3.0 + libmatroska v1.4.0

Video
ID : 1
Format : AVC
Format/Info : Advanced Video Codec
Format profile : High@L4.1
Format settings, CABAC : Yes
Format settings, ReFrames : 4 frames
Muxing mode : Container profile=Unknown@4.1
Codec ID : V_MPEG4/ISO/AVC
Duration : 1h 16mn
Bit rate : 8 447 Kbps
Width : 1 828 pixels
Height : 1 080 pixels
Display aspect ratio : 1.693
Frame rate : 23.976 fps
Color space : YUV
Chroma subsampling : 4:2:0
Bit depth : 8 bits
Scan type : Progressive
Bits/(Pixel*Frame) : 0.178
Stream size : 4.37 GiB (73%)
Writing library : x264 core 133 r2334 a3ac64b
Encoding settings : cabac=1 / ref=4 / deblock=1:0:0 / analyse=0x3:0x133 / me=umh / subme=10 / psy=1 / psy_rd=1.00:0.00 / mixed_ref=1 / me_range=32 / chroma_me=1 / trellis=2 / 8x8dct=1 / cqm=0 / deadzone=21,11 / fast_pskip=0 / chroma_qp_offset=-2 / threads=6 / lookahead_threads=1 / sliced_threads=0 / nr=0 / decimate=1 / interlaced=0 / bluray_compat=0 / constrained_intra=0 / bframes=10 / b_pyramid=2 / b_adapt=2 / b_bias=0 / direct=3 / weightb=1 / open_gop=0 / weightp=2 / keyint=240 / keyint_min=24 / scenecut=40 / intra_refresh=0 / rc_lookahead=50 / rc=2pass / mbtree=0 / bitrate=8447 / ratetol=2.0 / qcomp=1.00 / qpmin=0 / qpmax=51 / qpstep=4 / cplxblur=20.0 / qblur=0.5 / vbv_maxrate=38000 / vbv_bufsize=30000 / nal_hrd=none / ip_ratio=1.40 / pb_ratio=1.30 / aq=1:1.00
Color primaries : BT.709-5, BT.1361, IEC 61966-2-4, SMPTE RP177
Transfer characteristics : BT.709-5, BT.1361
Matrix coefficients : BT.709-5, BT.1361, IEC 61966-2-4 709, SMPTE RP177

Audio #1
ID : 2
Format : AC-3
Format/Info : Audio Coding 3
Mode extension : CM (complete main)
Codec ID : A_AC3
Duration : 1h 16mn
Bit rate mode : Constant
Bit rate : 640 Kbps
Channel(s) : 6 channels
Channel positions : Front: L C R, Side: L R, LFE
Sampling rate : 48.0 KHz
Bit depth : 16 bits
Stream size : 349 MiB (6%)
Title : Дубляж BD CEE
Language : Russian

Audio #2
ID : 3
Format : AC-3
Format/Info : Audio Coding 3
Mode extension : CM (complete main)
Codec ID : A_AC3
Duration : 1h 16mn
Bit rate mode : Constant
Bit rate : 384 Kbps
Channel(s) : 6 channels
Channel positions : Front: L C R, Side: L R, LFE
Sampling rate : 48.0 KHz
Bit depth : 16 bits
Stream size : 209 MiB (3%)
Title : DVO
Language : Russian

Audio #3
ID : 4
Format : AC-3
Format/Info : Audio Coding 3
Mode extension : CM (complete main)
Codec ID : A_AC3
Duration : 1h 16mn
Bit rate mode : Constant
Bit rate : 448 Kbps
Channel(s) : 6 channels
Channel positions : Front: L C R, Side: L R, LFE
Sampling rate : 48.0 KHz
Bit depth : 16 bits
Stream size : 244 MiB (4%)
Title : AVO - Ю. Живов
Language : Russian

Audio #4
ID : 5
Format : AC-3
Format/Info : Audio Coding 3
Mode extension : CM (complete main)
Codec ID : A_AC3
Duration : 1h 16mn
Bit rate mode : Constant
Bit rate : 448 Kbps
Channel(s) : 6 channels
Channel positions : Front: L C R, Side: L R, LFE
Sampling rate : 48.0 KHz
Bit depth : 16 bits
Stream size : 244 MiB (4%)
Title : AVO - А. Алексеев
Language : Russian

Audio #5
ID : 6
Format : AC-3
Format/Info : Audio Coding 3
Mode extension : CM (complete main)
Codec ID : A_AC3
Duration : 1h 16mn
Bit rate mode : Constant
Bit rate : 384 Kbps
Channel(s) : 6 channels
Channel positions : Front: L C R, Side: L R, LFE
Sampling rate : 48.0 KHz
Bit depth : 16 bits
Stream size : 209 MiB (3%)
Title : AVO - А. Дольский
Language : Russian

Audio #6
ID : 7
Format : AC-3
Format/Info : Audio Coding 3
Mode extension : CM (complete main)
Codec ID : A_AC3
Duration : 1h 16mn
Bit rate mode : Constant
Bit rate : 448 Kbps
Channel(s) : 6 channels
Channel positions : Front: L C R, Side: L R, LFE
Sampling rate : 48.0 KHz
Bit depth : 16 bits
Stream size : 244 MiB (4%)
Language : English

Text #1
ID : 8
Format : UTF-8
Codec ID : S_TEXT/UTF8
Codec ID/Info : UTF-8 Plain Text
Language : Russian

Text #2
ID : 9
Format : UTF-8
Codec ID : S_TEXT/UTF8
Codec ID/Info : UTF-8 Plain Text
Language : Ukrainian

Text #3
ID : 10
Format : UTF-8
Codec ID : S_TEXT/UTF8
Codec ID/Info : UTF-8 Plain Text
Language : English

Menu
00:00:00.000 : en:00:00:00.000
00:01:56.115 : en:00:01:56.115
00:08:22.543 : en:00:08:22.543
00:12:28.164 : en:00:12:28.164
00:17:00.686 : en:00:17:00.686
00:22:34.519 : en:00:22:34.519
00:29:19.466 : en:00:29:19.466
00:34:20.558 : en:00:34:20.558
00:38:19.005 : en:00:38:19.005
00:40:22.169 : en:00:40:22.169
00:45:33.021 : en:00:45:33.021
00:50:09.423 : en:00:50:09.423
00:54:52.455 : en:00:54:52.455
00:59:02.872 : en:00:59:02.872
01:06:18.432 : en:01:06:18.432
01:10:25.012 : en:01:10:25.012




Релиз группы:



   Похожие торренты   Торрент   Размер 
В этой теме нет новых непрочитанных сообщений. Король Лев 3: Хакуна Матата / The Lion King 1½ (2004) BDRemux 1080p | D, P2, A

6 | 5

25.66 ГБ

В этой теме нет новых непрочитанных сообщений. Король Лев 3. Хакуна Матата / The Lion King 1½ (2004) BDRip | D

107 | 13

744.35 МБ

В этой теме нет новых непрочитанных сообщений. Король-лев 3: Хакуна Матата / The Lion King 1½ (2004) BDRip от HQ-ViDEO

31 | 13

2.07 ГБ

В этой теме нет новых непрочитанных сообщений. Король-лев 3: Хакуна Матата / The Lion King 1½ (2004) BDRip [720p] от HQ-ViDEO.

40 | 5

4.37 ГБ

В этой теме нет новых непрочитанных сообщений. Король-лев 3: Хакуна Матата / The Lion King 3: Hakuna Matata (2004) BDRip от HQCLUB

703 | 35

1.45 ГБ

В этой теме нет новых непрочитанных сообщений. Король-лев 3: Хакуна Матата / The Lion King 1½ (2004) DVDRip

0 | 4

1.09 ГБ

В этой теме нет новых непрочитанных сообщений. Король Лев 3: Хакуна Матата / The Lion King 1½ (2004) DVDRip-AVC

37 | 6

1.51 ГБ




Вы не можете начинать темы
Вы не можете отвечать на сообщения
Вы не можете редактировать свои сообщения
Вы не можете удалять свои сообщения
Вы не можете добавлять вложения

Перейти:  
Для Мосгорсуда, Роскомнадзора и рекламодателей: mosgorsud-torrent[собачка]yandex.ru
 Вход
ppkBB3cker v.2 © 2008-2014 @ PPK
[ Time : 0.025s | 14 Queries | GZIP : On ]

Торрент трекер RUTOR.IN, Не можете зайти на rutor.org? Какой новый адрес рутор? Какое зеркало рутор? Не работает rutor.org и зеркала? Тогда наш торрент специально для вас. Rutor.in неофициальное зеркало rutor. В случае если у Вас заблокирован rutor или вдруг Вы не можете на него зайти, то Вы без труда сможете скачать бесплатно и без рекламы последние новинки кино, игр, сериалов и прочего у нас, на Rutor.in. Не нужно использовать прокси, чтобы зайти на рутор, достаточно воспользоваться нашим ресурсом. Все новые фильмы, игры, сериалы, книги и музыка за 2013 и 2014 годы через торрент бесплатно. Скачивайте фильмы в хорошем качестве, игры для пк, xbox, playstation без регистрации. У нас вы найдете новые Зарубежные сериалы и Русские сериалы 2013, 2014, 2015 годов. Оставайтесь с нами, качайте любимые фильмы, игры, сериалы, книги и музыку.