img image001 image001 image001 image001 image001 image001 image001 image001 image001 image001 image001 image001 image001 image001 image001

Planets Sun Sun Sun
Статистика раздачи
Автор: Снежана | Размер: 7.94 ГБ | Добавлен: 27 июл 2013
Раздают: 4    Качают: 5
Скачать торрент
Скачать торрент
Описание торрента

СообщениеДобавлено: 27 июл 2013 


Информация о фильме
    Русское название: Корпорация Монстров
    Оригинальное название: Monsters, Inc.
    Год выхода: 2001
    Жанр: Комедия, семейный, мультфильм
    Режиссер: Пит Доктер, Дэвид Силверман
    Выпущено: США
    Продолжительность: 01:34:48
    Перевод: Дублированный, Двухголосый закадровый (П.Гланц и И.Королева)
    В ролях: Билли Кристал, Джон Гудмен, Джеймс Коберн, Дженифер Тилли, Бонни Хант, Мэри Гиббс


Сюжет фильма
    Действие мультфильма разворачивается в городе Монстрополисе, в котором обитают множество монстров всевозможных форм и размеров. Двое друзей-монстриков работают на крупнейшую "пугательную" корпорацию - "Корпорацию Монстров" (Monsters Inc), в должностях "старший пугальщик детей" и "помошник пугальщика". Для монстров крики детей являются необходимым для жизни источником энергии и работники этой корпорации занимаются "добычей" этого ценного "ресурса". Проблема заключается в том, что, по мнению монстров, дети являются для них токсичными существами, а потому любой контакт с ними запрещен. Ситуация меняется, когда одна из жертв, маленькая девочка, случайно попадает вместе с монстрами в их мир, ставя под угрозу и карьеру героев, и, возможно, их жизнь...


Файл
    Качество: BDRip 1080p (DVD9) (исходник Blu-ray Remux)
    Видео: 1920x1038, 10412 Кбит/сек, 23,976 кадр/сек, AVC, x264, High@L4.1, 1.85:1, 0.218 Бит/[Пиксели*Кадры], 2pass
    Аудио 1: AC-3, 640 Кбит/сек, 6 канала(ов), 48,0 КГц - Дублированный / Русский
    Аудио 2: AC-3, 640 Кбит/сек, 6 канала(ов), 48,0 КГц - Двухголосый закадровый (П.Гланц и И.Королева) / Русский
    Аудио 3: AC-3, 640 Кбит/сек, 6 канала(ов), 48,0 КГц - Оригинал / Английский
    Субтитры: Русские | Полные
    Чаптеры: Есть



Релиз Группа | Автор Рипа:



Format : Matroska
Format version : Version 4 / Version 2
File size : 7.94 GiB
Duration : 1h 32mn
Overall bit rate : 12.3 Mbps
Movie name : Корпорация Монстров.(2001).BDRip.1080p.(DVD9).[NoLimits-Team]
Encoded date : UTC 2013-06-26 11:33:48
Writing application : mkvmerge v6.0.0 ('Coming Up For Air') built on Jan 20 2013 09:52:00
Writing library : libebml v1.3.0 + libmatroska v1.4.0

Video
ID : 1
Format : AVC
Format/Info : Advanced Video Codec
Format profile : High@L4.1
Format settings, CABAC : Yes
Format settings, ReFrames : 4 frames
Codec ID : V_MPEG4/ISO/AVC
Duration : 1h 32mn
Bit rate : 10.4 Mbps
Width : 1 920 pixels
Height : 1 038 pixels
Display aspect ratio : 1.85:1
Frame rate mode : Constant
Frame rate : 23.976 fps
Color space : YUV
Chroma subsampling : 4:2:0
Bit depth : 8 bits
Scan type : Progressive
Bits/(Pixel*Frame) : 0.218
Stream size : 6.54 GiB (82%)
Title : Корпорация Монстров.(2001).BDRip.1080p.(DVD9).[NoLimits-Team]
Writing library : x264 core 133 r2334 a3ac64b
Encoding settings : cabac=1 / ref=4 / deblock=1:0:0 / analyse=0x3:0x113 / me=umh / subme=11 / psy=1 / psy_rd=1.00:0.00 / mixed_ref=1 / me_range=64 / chroma_me=1 / trellis=2 / 8x8dct=1 / cqm=0 / deadzone=21,11 / fast_pskip=0 / chroma_qp_offset=-2 / threads=9 / lookahead_threads=2 / sliced_threads=0 / nr=0 / decimate=1 / interlaced=0 / bluray_compat=0 / constrained_intra=0 / bframes=12 / b_pyramid=2 / b_adapt=2 / b_bias=0 / direct=3 / weightb=1 / open_gop=0 / weightp=2 / keyint=240 / keyint_min=23 / scenecut=40 / intra_refresh=0 / rc_lookahead=60 / rc=2pass / mbtree=1 / bitrate=10412 / ratetol=2.0 / qcomp=0.60 / qpmin=0 / qpmax=51 / qpstep=4 / cplxblur=20.0 / qblur=0.5 / ip_ratio=1.40 / aq=1:1.00
Language : English
Default : Yes
Forced : No

Audio #1
ID : 2
Format : AC-3
Format/Info : Audio Coding 3
Mode extension : CM (complete main)
Format settings, Endianness : Big
Codec ID : A_AC3
Duration : 1h 32mn
Bit rate mode : Constant
Bit rate : 640 Kbps
Channel(s) : 6 channels
Channel positions : Front: L C R, Side: L R, LFE
Sampling rate : 48.0 KHz
Bit depth : 16 bits
Compression mode : Lossy
Stream size : 422 MiB (5%)
Title : Дублированный
Language : Russian
Default : Yes
Forced : No

Audio #2
ID : 3
Format : AC-3
Format/Info : Audio Coding 3
Mode extension : CM (complete main)
Format settings, Endianness : Big
Codec ID : A_AC3
Duration : 1h 32mn
Bit rate mode : Constant
Bit rate : 640 Kbps
Channel(s) : 6 channels
Channel positions : Front: L C R, Side: L R, LFE
Sampling rate : 48.0 KHz
Bit depth : 16 bits
Compression mode : Lossy
Stream size : 422 MiB (5%)
Title : Двухголосый закадровый (П.Гланц и И.Королева)
Language : Russian
Default : No
Forced : No

Audio #3
ID : 4
Format : AC-3
Format/Info : Audio Coding 3
Mode extension : CM (complete main)
Format settings, Endianness : Big
Codec ID : A_AC3
Duration : 1h 32mn
Bit rate mode : Constant
Bit rate : 640 Kbps
Channel(s) : 6 channels
Channel positions : Front: L C R, Side: L R, LFE
Sampling rate : 48.0 KHz
Bit depth : 16 bits
Compression mode : Lossy
Stream size : 422 MiB (5%)
Title : Английский / Оригинал
Language : English
Default : No
Forced : No

Text
ID : 5
Format : UTF-8
Codec ID : S_TEXT/UTF8
Codec ID/Info : UTF-8 Plain Text
Title : Русские (полные)
Language : Russian
Default : No
Forced : No

Menu
00:05:00.000 : :Chapter 01
00:10:00.000 : :Chapter 02
00:15:00.000 : :Chapter 03
00:25:00.000 : :Chapter 04
00:35:00.000 : :Chapter 05
00:45:00.000 : :Chapter 06
00:55:00.000 : :Chapter 07
01:05:00.000 : :Chapter 08
01:15:00.000 : :Chapter 09
01:25:00.000 : :Chapter 10





   Похожие торренты   Торрент   Размер 
В этой теме нет новых непрочитанных сообщений. Корпорация монстров / Monsters, Inc. / Университет монстров / Monsters University (2001-2013) BDRip 720p от Leonardo and Scarabey | iPad

705 | 203

3.31 ГБ

В этой теме нет новых непрочитанных сообщений. Корпорация монстров / Monsters, Inc. (2001) BDRip от New-team

371 | 17

1.46 ГБ

В этой теме нет новых непрочитанных сообщений. Корпорация монстров / Monsters, Inc. (2001) BDRip 1080p

41 | 6

7.34 ГБ

В этой теме нет новых непрочитанных сообщений. Корпорация монстров / Monsters, Inc. (2001) BDRip 1080p

59 | 3

5.76 ГБ

В этой теме нет новых непрочитанных сообщений. Корпорация монстров / Monsters, Inc. (2001) BDRip 1080p

197 | 17

4.37 ГБ

В этой теме нет новых непрочитанных сообщений. Корпорация Монстров / Monsters, Inc. (2001) BDRip 1080p от MediaClub

104 | 8

10.81 ГБ

В этой теме нет новых непрочитанных сообщений. Корпорация монстров / Monsters, Inc. (2001) BDRip 1080p от Neofilm

108 | 14

4.28 ГБ




Вы не можете начинать темы
Вы не можете отвечать на сообщения
Вы не можете редактировать свои сообщения
Вы не можете удалять свои сообщения
Вы не можете добавлять вложения

Перейти:  
Для Мосгорсуда, Роскомнадзора и рекламодателей: mosgorsud-torrent[собачка]yandex.ru
 Вход
ppkBB3cker v.2 © 2008-2014 @ PPK
[ Time : 0.023s | 16 Queries | GZIP : Off ]

Торрент трекер RUTOR.IN, Не можете зайти на rutor.org? Какой новый адрес рутор? Какое зеркало рутор? Не работает rutor.org и зеркала? Тогда наш торрент специально для вас. Rutor.in неофициальное зеркало rutor. В случае если у Вас заблокирован rutor или вдруг Вы не можете на него зайти, то Вы без труда сможете скачать бесплатно и без рекламы последние новинки кино, игр, сериалов и прочего у нас, на Rutor.in. Не нужно использовать прокси, чтобы зайти на рутор, достаточно воспользоваться нашим ресурсом. Все новые фильмы, игры, сериалы, книги и музыка за 2013 и 2014 годы через торрент бесплатно. Скачивайте фильмы в хорошем качестве, игры для пк, xbox, playstation без регистрации. У нас вы найдете новые Зарубежные сериалы и Русские сериалы 2013, 2014, 2015 годов. Оставайтесь с нами, качайте любимые фильмы, игры, сериалы, книги и музыку.