img image001 image001 image001 image001 image001 image001 image001 image001 image001 image001 image001 image001 image001 image001 image001

Planets Sun Sun Sun
Статистика раздачи
Автор: Снежана | Размер: 4.36 ГБ | Добавлен: 27 июл 2013
Раздают: 12    Качают: 1
Скачать торрент
Скачать торрент
Описание торрента

СообщениеДобавлено: 27 июл 2013 


Информация о фильме
    Русское название: Чудаки
    Оригинальное название: Lascars
    Год выхода: 2009
    Жанр: Комедия, мультфильм
    Режиссер: Эммануель Клотц
    Выпущено: Франция, Германия
    Продолжительность: 01:35:24
    Перевод: Профессиональный многоголосный
    В ролях: Венсан Кассель, Дайан Крюгер, Фредерик Бель, Венсан Дезанья, Дэн Херцберг, Эрик Жюдор


Сюжет фильма
    Тони и Жозе — молодые парни, которые в поисках заработка то и дело попадают в переделки! На этот раз они приплыли по-крупному! Тони взялся перевезти сумку с наркотой и потерял ее, а Жозе, взявшийся ремонтировать сауну в доме судьи, разрушил весь дом!


Файл
    Качество: BDRip 1080p (исходник Blu-ray)
    Видео: 1920x1040, 6113 Кбит/сек, 23,976 кадр/сек, AVC, x264, High@L4.1, 1.85:1, 0.128 Бит/[Пиксели*Кадры], 2pass
    Аудио 1: AC-3, 448 Кбит/сек, 6 канала(ов), 48,0 КГц - Профессиональный многоголосный / Русский
    Субтитры: Нет
    Чаптеры: Есть



Релиз Группа | Автор Рипа:



Format : Matroska
Format version : Version 4 / Version 2
File size : 4.36 GiB
Duration : 1h 35mn
Overall bit rate : 6 541 Kbps
Movie name : Чудаки.(2009).BDRip.1080p.[NoLimits-Team]
Encoded date : UTC 2013-06-26 12:54:27
Writing application : mkvmerge v6.0.0 ('Coming Up For Air') built on Jan 20 2013 09:52:00
Writing library : libebml v1.3.0 + libmatroska v1.4.0

Video
ID : 1
Format : AVC
Format/Info : Advanced Video Codec
Format profile : High@L4.1
Format settings, CABAC : Yes
Format settings, ReFrames : 4 frames
Codec ID : V_MPEG4/ISO/AVC
Duration : 1h 35mn
Bit rate : 6 113 Kbps
Width : 1 920 pixels
Height : 1 040 pixels
Display aspect ratio : 1.85:1
Frame rate mode : Constant
Frame rate : 23.976 fps
Color space : YUV
Chroma subsampling : 4:2:0
Bit depth : 8 bits
Scan type : Progressive
Bits/(Pixel*Frame) : 0.128
Stream size : 3.97 GiB (91%)
Title : Чудаки.(2009).BDRip.1080p.[NoLimits-Team]
Writing library : x264 core 133 r2334 a3ac64b
Encoding settings : cabac=1 / ref=4 / deblock=1:-2:-2 / analyse=0x3:0x113 / me=umh / subme=11 / psy=1 / psy_rd=1.00:0.00 / mixed_ref=1 / me_range=64 / chroma_me=1 / trellis=2 / 8x8dct=1 / cqm=0 / deadzone=21,11 / fast_pskip=0 / chroma_qp_offset=-2 / threads=9 / lookahead_threads=2 / sliced_threads=0 / nr=0 / decimate=1 / interlaced=0 / bluray_compat=0 / constrained_intra=0 / bframes=12 / b_pyramid=2 / b_adapt=2 / b_bias=0 / direct=3 / weightb=1 / open_gop=0 / weightp=2 / keyint=240 / keyint_min=23 / scenecut=40 / intra_refresh=0 / rc_lookahead=60 / rc=2pass / mbtree=1 / bitrate=6113 / ratetol=2.0 / qcomp=0.60 / qpmin=0 / qpmax=51 / qpstep=4 / cplxblur=20.0 / qblur=0.5 / ip_ratio=1.40 / aq=1:1.00
Language : French
Default : Yes
Forced : No

Audio
ID : 2
Format : AC-3
Format/Info : Audio Coding 3
Mode extension : CM (complete main)
Format settings, Endianness : Big
Codec ID : A_AC3
Duration : 1h 35mn
Bit rate mode : Constant
Bit rate : 448 Kbps
Channel(s) : 6 channels
Channel positions : Front: L C R, Side: L R, LFE
Sampling rate : 48.0 KHz
Bit depth : 16 bits
Compression mode : Lossy
Stream size : 306 MiB (7%)
Title : Профессиональный (многоголосный)
Language : Russian
Default : Yes
Forced : No

Menu
00:05:00.000 : :Chapter 01
00:10:00.000 : :Chapter 02
00:15:00.000 : :Chapter 03
00:25:00.000 : :Chapter 04
00:35:00.000 : :Chapter 05
00:45:00.000 : :Chapter 06
00:55:00.000 : :Chapter 07
01:05:00.000 : :Chapter 08
01:15:00.000 : :Chapter 09
01:25:00.000 : :Chapter 10





   Похожие торренты   Торрент   Размер 
В этой теме нет новых непрочитанных сообщений. Чудаки / Lascars (2009) BDRip 720p от NoLimits-Team

55 | 5

2.17 ГБ

В этой теме нет новых непрочитанных сообщений. Чудаки / Lascars (2009) DVDRip

36 | 4

1.37 ГБ

В этой теме нет новых непрочитанных сообщений. Всё путём / Everybody's Fine (2009) BDRip 1080p от NoLimits-Team

32 | 5

4.37 ГБ

В этой теме нет новых непрочитанных сообщений. Интернэшнл / The International (2009) BDRip 1080p от NoLimits-Team

38 | 29

7.95 ГБ

В этой теме нет новых непрочитанных сообщений. Дорога / The Road (2009) BDRip 1080p от NoLimits-Team

176 | 6

4.37 ГБ

В этой теме нет новых непрочитанных сообщений. Крик Совы / Cry of the Owl (2009) BDRip 1080p от NOLIMITS-TEAM

0 | 4

4.28 ГБ

В этой теме нет новых непрочитанных сообщений. Похороните меня заживо / Get Low (2009) BDRip 1080p от NOLIMITS-TEAM

1 | 346

4.41 ГБ




Вы не можете начинать темы
Вы не можете отвечать на сообщения
Вы не можете редактировать свои сообщения
Вы не можете удалять свои сообщения
Вы не можете добавлять вложения

Перейти:  
Для Мосгорсуда, Роскомнадзора и рекламодателей: mosgorsud-torrent[собачка]yandex.ru
 Вход
ppkBB3cker v.2 © 2008-2014 @ PPK
[ Time : 0.035s | 15 Queries | GZIP : Off ]

Торрент трекер RUTOR.IN, Не можете зайти на rutor.org? Какой новый адрес рутор? Какое зеркало рутор? Не работает rutor.org и зеркала? Тогда наш торрент специально для вас. Rutor.in неофициальное зеркало rutor. В случае если у Вас заблокирован rutor или вдруг Вы не можете на него зайти, то Вы без труда сможете скачать бесплатно и без рекламы последние новинки кино, игр, сериалов и прочего у нас, на Rutor.in. Не нужно использовать прокси, чтобы зайти на рутор, достаточно воспользоваться нашим ресурсом. Все новые фильмы, игры, сериалы, книги и музыка за 2013 и 2014 годы через торрент бесплатно. Скачивайте фильмы в хорошем качестве, игры для пк, xbox, playstation без регистрации. У нас вы найдете новые Зарубежные сериалы и Русские сериалы 2013, 2014, 2015 годов. Оставайтесь с нами, качайте любимые фильмы, игры, сериалы, книги и музыку.
cron