img image001 image001 image001 image001 image001 image001 image001 image001 image001 image001 image001 image001 image001 image001 image001

Planets Sun Sun Sun
Статистика раздачи
Автор: Снежана | Размер: 5.75 ГБ | Добавлен: 27 июл 2013
Раздают: 83    Качают: 2
Скачать торрент
Скачать торрент
Описание торрента

СообщениеДобавлено: 27 июл 2013 

Правдивая история Красной Шапки

Hoodwinked!

«Red Riding Hood, The Woodsman, Granny, The Wolf. Not Your Typical Crime. Not Your Usual Suspects.»




#77
Год выпуска: 2005
Страна: США
Жанр: мультфильм, комедия, семейный..
Продолжительность: 01:21:06
Перевод: Профессиональный (дублированный)
Субтитры: Russian (UTF-8), English (UTF-8)

Режиссер: Кори Эдвардс, Тодд Эдвардс, Тони Лич
Сценарий: Кори Эдвардс, Тодд Эдвардс, Тони Лич
Продюсер: Морис Канбар, Дэвид Ловегрен, Сью Беа Монтгомери, ...
Композитор: Джон Марк Пэйнтер, Кристин Уилкинсон
Монтаж: Тони Лич

В ролях: Энн Хэтэуэй / Anne Hathaway (Red Puckett, озвучка), Гленн Клоуз / Glenn Close (Granny, озвучка), Джеймс Белуши / James Belushi (в титрах: Jim Belushi) (Kirk the Woodsman, озвучка), Патрик Варбертон / Patrick Warburton (Wolf W. Wolf, озвучка), Энтони Андерсон / Anthony Anderson (Detective Bill Stork, озвучка), Дэвид Огден Стайерз / David Ogden Stiers (Nicky Flippers, озвучка), Иксзибит / Xzibit (Chief Grizzly, озвучка), Чазз Пальминтери / Chazz Palminteri (Woolworth, озвучка)


Описание: Вы думаете, что знаете эту историю наизусть. Но что если Красная Шапочка совсем не та, кем кажется? За детективное расследование принимается инспектор Лягушка. У него много вопросов: почему Бабушка поселилась так далеко, кто отправил Шапочку через глухой лес, чем на самом деле промышляет Волк?


Бюджет: $15 000 000
Сборы в США: $51 386 611
Сборы в мире: + $20 725 708 = $72 112 319
Сборы в России: $1 085 000
Зрители: США 7.82 млн , Бразилия 1.45 млн , Великобритания 1.19 млн
Премьера (мир): 16 мая 2004, ...
Премьера (РФ): 2 марта 2006, «Централ Партнершип»
Релиз на DVD: 30 марта 2006, «CP-Digital», ...
Рейтинг MPAA: Рекомендуется присутствие родителей




Качество: BDRip.1080р
Формат: MKV
Видео кодек: AVC
Аудио кодеk: AC3
Видео: 1920x1080 (16:9), 23.976 fps, AVC, 9 274 Kbps

Аудио #1: AC3, 448 Kbps, 48.0 KHz, 6 ch (Дубляж)
Аудио #2: AC3, 448 Kbps, 48.0 KHz, 6 ch (English)





Лог:
- x264 [info]: frame I:1124 Avg QP:13.11 size:251105
- x264 [info]: frame P:45150 Avg QP:15.52 size: 76321
- x264 [info]: frame B:70392 Avg QP:18.30 size: 27041

General
Complete name : Pravdivaya.istoriya.krasnoj.shapki.2005.BDRip.1080p.mkv
Format : Matroska
File size : 5.75 GiB
Duration : 1h 21mn
Overall bit rate : 10.2 Mbps
Encoded date : UTC 2013-06-26 09:20:34
Writing application : mkvmerge v6.1.0 ('Old Devil') built on Mar 2 2013 14:32:37
Writing library : libebml v1.3.0 + libmatroska v1.4.0

Video
ID : 1
Format : AVC
Format/Info : Advanced Video Codec
Format profile : High@L4.1
Format settings, CABAC : Yes
Format settings, ReFrames : 4 frames
Muxing mode : Container profile=Unknown@4.1
Codec ID : V_MPEG4/ISO/AVC
Duration : 1h 21mn
Bit rate : 9 274 Kbps
Width : 1 920 pixels
Height : 1 080 pixels
Display aspect ratio : 16:9
Frame rate : 23.976 fps
Color space : YUV
Chroma subsampling : 4:2:0
Bit depth : 8 bits
Scan type : Progressive
Bits/(Pixel*Frame) : 0.187
Stream size : 5.13 GiB (89%)
Writing library : x264 core 133 r2334 a3ac64b
Encoding settings : cabac=1 / ref=4 / deblock=1:0:0 / analyse=0x3:0x133 / me=umh / subme=10 / psy=1 / psy_rd=1.00:0.00 / mixed_ref=1 / me_range=32 / chroma_me=1 / trellis=2 / 8x8dct=1 / cqm=0 / deadzone=21,11 / fast_pskip=0 / chroma_qp_offset=-2 / threads=6 / lookahead_threads=1 / sliced_threads=0 / nr=0 / decimate=1 / interlaced=0 / bluray_compat=0 / constrained_intra=0 / bframes=10 / b_pyramid=2 / b_adapt=2 / b_bias=0 / direct=3 / weightb=1 / open_gop=0 / weightp=2 / keyint=240 / keyint_min=24 / scenecut=40 / intra_refresh=0 / rc=2pass / mbtree=0 / bitrate=9274 / ratetol=2.0 / qcomp=1.00 / qpmin=0 / qpmax=51 / qpstep=4 / cplxblur=20.0 / qblur=0.5 / ip_ratio=1.40 / pb_ratio=1.30 / aq=1:1.00
Color primaries : BT.709-5, BT.1361, IEC 61966-2-4, SMPTE RP177
Transfer characteristics : BT.709-5, BT.1361
Matrix coefficients : BT.709-5, BT.1361, IEC 61966-2-4 709, SMPTE RP177

Audio #1
ID : 2
Format : AC-3
Format/Info : Audio Coding 3
Mode extension : CM (complete main)
Codec ID : A_AC3
Duration : 1h 21mn
Bit rate mode : Constant
Bit rate : 448 Kbps
Channel(s) : 6 channels
Channel positions : Front: L C R, Side: L R, LFE
Sampling rate : 48.0 KHz
Bit depth : 16 bits
Stream size : 260 MiB (4%)
Title : Дубляж
Language : Russian

Audio #2
ID : 3
Format : AC-3
Format/Info : Audio Coding 3
Mode extension : CM (complete main)
Codec ID : A_AC3
Duration : 1h 21mn
Bit rate mode : Constant
Bit rate : 448 Kbps
Channel(s) : 6 channels
Channel positions : Front: L C R, Side: L R, LFE
Sampling rate : 48.0 KHz
Bit depth : 16 bits
Stream size : 260 MiB (4%)
Language : English

Text #1
ID : 4
Format : UTF-8
Codec ID : S_TEXT/UTF8
Codec ID/Info : UTF-8 Plain Text
Language : Russian

Text #2
ID : 5
Format : UTF-8
Codec ID : S_TEXT/UTF8
Codec ID/Info : UTF-8 Plain Text
Language : English



Релиз группы:



   Похожие торренты   Торрент   Размер 
В этой теме нет новых непрочитанных сообщений. Правдивая история красной шапки / Hoodwinked (2005) BDRip от HQ-ViDEO

59 | 17

1.71 ГБ

В этой теме нет новых непрочитанных сообщений. Правдивая история красной шапки / Hoodwinked (2005) BDRip от HQCLUB

285 | 21

1.45 ГБ

В этой теме нет новых непрочитанных сообщений. Правдивая история красной шапки / Hoodwinked (2005) DVDRip

46 | 2

696.71 МБ

В этой теме нет новых непрочитанных сообщений. Правдивая история / True Story (2015) BDRip 1080p | L

493 | 108

16.86 ГБ

В этой теме нет новых непрочитанных сообщений. Правдивая история / True Story (2014) BDRip 1080p | iTunes

364 | 65

15.59 ГБ

В этой теме нет новых непрочитанных сообщений. Правдивая история / True Story (2015) BDRip 1080p от HDReactor | L

152 | 13

11.65 ГБ

В этой теме нет новых непрочитанных сообщений. Правдивая история / True Story (2015) BDRip 1080p от HDReactor | L

291 | 83

11.65 ГБ




Вы не можете начинать темы
Вы не можете отвечать на сообщения
Вы не можете редактировать свои сообщения
Вы не можете удалять свои сообщения
Вы не можете добавлять вложения

Перейти:  
Для Мосгорсуда, Роскомнадзора и рекламодателей: mosgorsud-torrent[собачка]yandex.ru
 Вход
ppkBB3cker v.2 © 2008-2014 @ PPK
[ Time : 0.098s | 14 Queries | GZIP : Off ]

Торрент трекер RUTOR.IN, Не можете зайти на rutor.org? Какой новый адрес рутор? Какое зеркало рутор? Не работает rutor.org и зеркала? Тогда наш торрент специально для вас. Rutor.in неофициальное зеркало rutor. В случае если у Вас заблокирован rutor или вдруг Вы не можете на него зайти, то Вы без труда сможете скачать бесплатно и без рекламы последние новинки кино, игр, сериалов и прочего у нас, на Rutor.in. Не нужно использовать прокси, чтобы зайти на рутор, достаточно воспользоваться нашим ресурсом. Все новые фильмы, игры, сериалы, книги и музыка за 2013 и 2014 годы через торрент бесплатно. Скачивайте фильмы в хорошем качестве, игры для пк, xbox, playstation без регистрации. У нас вы найдете новые Зарубежные сериалы и Русские сериалы 2013, 2014, 2015 годов. Оставайтесь с нами, качайте любимые фильмы, игры, сериалы, книги и музыку.