img image001 image001 image001 image001 image001 image001 image001 image001 image001 image001 image001 image001 image001 image001 image001

Planets Sun Sun Sun
Статистика раздачи
Автор: Снежана | Размер: 4.37 ГБ | Добавлен: 27 июл 2013
Раздают: 4    Качают: 7
Скачать торрент
Скачать торрент
Описание торрента

СообщениеДобавлено: 27 июл 2013 


Информация о фильме
Название: Наживка для акулы: Не очень страшное кино
Оригинальное название: Shark Bait
Год выпуска: 2006
Жанр: Мультфильм, семейный
Режиссер: Ховард Э. Бэйкер, Джон Фокс
В ролях: Фредди Принц мл., Роб Шнайдер, Ивэн Рэйчел Вуд, Донал Лог, Энди Дик, Фрэн Дрешер, Джон Рис-Дэвис, Р. Ли Эрми, Бруно Александр, Брайс Бэкхам, Джимми Беннетт, Дилан Кэш, Риди Гиббс, Меган Перри



О фильме:
Веселые приключения забавной маленькой рыбки по имени Пи, отправившейся в поисках счастья на Большой Риф после гибели родителей. Влюбившись в самую очаровательную и знаменитую красотку Рифа, он наживает себе серьезных врагов, значительно превосходящих его по силе. Но с ним верные друзья и мудрые помощники, всегда готовые прийти на помощь. Сможет ли он отстоять свою любовь и обрести на Рифе новый дом?



Страна: США, Южная Корея
Студия: Wonderworld Studios, Silver Nitrate Films
Продолжительность: 01:17:45
Перевод: Дублированный



Общее
Уникальный идентификатор : 219773601649074555767437696512717416633 (0xA556DB2572FA958D91F9FCCFE36EE8B9)
Полное имя : F:для риповThe.Reef.2006.BDRip1080.Torrent-Xzona.mkv
Формат : Matroska
Версия формата : Version 2
Размер файла : 4,37 Гбайт
Продолжительность : 1 ч. 17 м.
Общий поток : 8045 Кбит/сек
Дата кодирования : UTC 2013-06-20 19:13:57
Программа кодирования : mkvmerge v6.2.0 ('Promised Land') built on Apr 28 2013 12:22:01
Библиотека кодирования : libebml v1.3.0 + libmatroska v1.4.0
Видео
Идентификатор : 1
Формат : AVC
Формат/Информация : Advanced Video Codec
Профиль формата : High@L4.1
Параметр CABAC формата : Да
Параметр ReFrames формата : 4 кадра
Идентификатор кодека : V_MPEG4/ISO/AVC
Продолжительность : 1 ч. 17 м.
Битрейт : 7595 Кбит/сек
Ширина : 1920 пикселей
Высота : 1032 пикселя
Соотношение сторон : 1,85:1
Режим частоты кадров : Постоянный
Частота кадров : 23,976 кадра/сек
Цветовое пространство : YUV
Субдискретизация насыщенности : 4:2:0
Битовая глубина : 8 бит
Тип развёртки : Прогрессивная
Бит/(Пиксели*Кадры) : 0.160
Размер потока : 4,04 Гбайт (92%)
Библиотека кодирования : x264 core 133 r2334 a3ac64b
Настройки программы : cabac=1 / ref=4 / deblock=1:-1:-1 / analyse=0x3:0x133 / me=umh / subme=10 / psy=1 / psy_rd=1.00:0.15 / mixed_ref=1 / me_range=16 / chroma_me=1 / trellis=2 / 8x8dct=1 / cqm=0 / deadzone=21,11 / fast_pskip=1 / chroma_qp_offset=-3 / threads=9 / lookahead_threads=1 / sliced_threads=0 / nr=0 / decimate=1 / interlaced=0 / bluray_compat=0 / constrained_intra=0 / bframes=5 / b_pyramid=2 / b_adapt=2 / b_bias=0 / direct=1 / weightb=1 / open_gop=0 / weightp=2 / keyint=240 / keyint_min=23 / scenecut=40 / intra_refresh=0 / rc_lookahead=40 / rc=2pass / mbtree=1 / bitrate=7595 / ratetol=1.0 / qcomp=0.60 / qpmin=0 / qpmax=69 / qpstep=4 / cplxblur=20.0 / qblur=0.5 / ip_ratio=1.40 / aq=1:1.00
Язык : English
Default : Да
Forced : Нет
Аудио
Идентификатор : 2
Формат : AC-3
Формат/Информация : Audio Coding 3
Расширение режима : CM (complete main)
Параметр Endianness формата : Big
Идентификатор кодека : A_AC3
Продолжительность : 1 ч. 17 м.
Вид битрейта : Постоянный
Битрейт : 448 Кбит/сек
Каналы : 6 каналов
Расположение каналов : Front: L C R, Side: L R, LFE
Частота : 48,0 КГц
Битовая глубина : 16 бит
Метод сжатия : С потерями
Размер потока : 249 Мбайт (6%)
Default : Да
Forced : Нет

Файл
Качество: BDRip 1080
Видео: 1920x1032 (1.860), 23.976 fps, 7 595 Кбит/с
Звук: AC-3, 48.0 KHz, 6 ch, 448 Kбит/с



Релиз от: Релиз от: &




   Похожие торренты   Торрент   Размер 
В этой теме нет новых непрочитанных сообщений. Наживка для акулы / Shark Bait (2006) BDRip 720p от Torrent-Xzona

2 | 3

2.19 ГБ

В этой теме нет новых непрочитанных сообщений. Наживка для акулы: Не очень страшное кино / Shark Bait (2006) HDRip от Torrent-Xzona | КПК | D

22 | 9

322.68 МБ

В этой теме нет новых непрочитанных сообщений. Наживка для акулы: Не очень страшное кино / Shark Bait / The Reef (2006) BDRip от HQCLUB

88 | 7

1.45 ГБ

В этой теме нет новых непрочитанных сообщений. Наживка для акулы / Shark Bait (2006) DVDRip-AVC [Hi10P] от FREEISLAND

1 | 2

1.37 ГБ

В этой теме нет новых непрочитанных сообщений. Наживка для акулы: Не очень страшное кино / Shark Bait (2006) DVD9

2 | 3

5 ГБ

В этой теме нет новых непрочитанных сообщений. Акулы пера / Soloalbum (2003) BDRip 1080 от Torrent-Xzona | P2

0 | 2

4.49 ГБ

В этой теме нет новых непрочитанных сообщений. Мега-акула против Меха-акулы / Mega Shark vs. Mecha Shark (2014) BDRip 720p | L1

229 | 16

3.68 ГБ




Вы не можете начинать темы
Вы не можете отвечать на сообщения
Вы не можете редактировать свои сообщения
Вы не можете удалять свои сообщения
Вы не можете добавлять вложения

Перейти:  
Для Мосгорсуда, Роскомнадзора и рекламодателей: mosgorsud-torrent[собачка]yandex.ru
 Вход
ppkBB3cker v.2 © 2008-2014 @ PPK
[ Time : 0.049s | 14 Queries | GZIP : Off ]

Торрент трекер RUTOR.IN, Не можете зайти на rutor.org? Какой новый адрес рутор? Какое зеркало рутор? Не работает rutor.org и зеркала? Тогда наш торрент специально для вас. Rutor.in неофициальное зеркало rutor. В случае если у Вас заблокирован rutor или вдруг Вы не можете на него зайти, то Вы без труда сможете скачать бесплатно и без рекламы последние новинки кино, игр, сериалов и прочего у нас, на Rutor.in. Не нужно использовать прокси, чтобы зайти на рутор, достаточно воспользоваться нашим ресурсом. Все новые фильмы, игры, сериалы, книги и музыка за 2013 и 2014 годы через торрент бесплатно. Скачивайте фильмы в хорошем качестве, игры для пк, xbox, playstation без регистрации. У нас вы найдете новые Зарубежные сериалы и Русские сериалы 2013, 2014, 2015 годов. Оставайтесь с нами, качайте любимые фильмы, игры, сериалы, книги и музыку.