img image001 image001 image001 image001 image001 image001 image001 image001 image001 image001 image001 image001 image001 image001 image001

Planets Sun Sun Sun
Статистика раздачи
Автор: Снежана | Размер: 4.37 ГБ | Добавлен: 27 июл 2013
Раздают: 58    Качают: 9
Скачать торрент
Скачать торрент
Описание торрента

СообщениеДобавлено: 27 июл 2013 

#77


Информация о фильме

Название: Лего: Бэтмен
Оригинальное название: LEGO Batman: The Movie - DC Superheroes Unite
Год выпуска: 2013
Жанр: Мультфильм, приключения
Выпущено: США, Великобритания, DC Comics, LEGO, The LEGO Group, Traveller's Tales, Warner Premiere Digital
Режиссер: Джон Бертон
В ролях: Клэнси Браун, Трой Бэйкер, Стивен Блум, Лора Бэйли, Роб Полсен, Брайан Блум

О фильме

Лекс Лютор, движимый желанием уничтожить Супермена, вступает в преступный союз не с кем иным, как с Джокером. Но, не они одни умеют кооперироваться: Бэтмен, Робин и Супермен смело встают на борьбу с преступностью.

Дополнительно

Продолжительность: 01:10:44
Перевод: Дублированное [iTunes Russia]
Субтитры: Русский

Файл

Качество: BDRip 1080p (исходник Blu-ray Disc)
Видео: 1920x1080, 8016 Kbps, 23.976 кадр/сек, AVC, x264, 16:9, 0.161 Бит/(Пиксели*Кадры)
Аудио1: AC-3, 192 Кбит/сек, 2 канала(ов), Дубляж
Аудио2: AC-3, 640 Кбит/сек, 6 канала(ов), Оригинал
Чаптеры: Есть
Размер: 4.37 Гб



Format : Matroska
Format version : Version 4 / Version 2
File size : 4.37 GiB
Duration : 1h 10mn
Overall bit rate : 8 844 Kbps
Movie name : LEGO Бэтмен.(2013).BDRip1080p.от.[NoLimits-Team].[mitrian]
Encoded date : UTC 2013-06-20 18:12:35
Writing application : mkvmerge v6.2.0 ('Promised Land') built on Apr 28 2013 12:22:01
Writing library : libebml v1.3.0 + libmatroska v1.4.0

Video
ID : 1
Format : AVC
Format/Info : Advanced Video Codec
Format profile : High@L4.1
Format settings, CABAC : Yes
Format settings, ReFrames : 4 frames
Codec ID : V_MPEG4/ISO/AVC
Duration : 1h 10mn
Bit rate : 8 016 Kbps
Width : 1 920 pixels
Height : 1 080 pixels
Display aspect ratio : 16:9
Frame rate mode : Constant
Frame rate : 23.976 fps
Color space : YUV
Chroma subsampling : 4:2:0
Bit depth : 8 bits
Scan type : Progressive
Bits/(Pixel*Frame) : 0.161
Stream size : 3.87 GiB (89%)
Title : LEGO Бэтмен: Супер-герои DC объединяются (2013) BDRip 1080p от NoLimits-Team
Writing library : x264 core 133 r2334 a3ac64b
Encoding settings : cabac=1 / ref=4 / deblock=1:0:0 / analyse=0x3:0x113 / me=umh / subme=10 / psy=1 / psy_rd=1.00:0.10 / mixed_ref=1 / me_range=32 / chroma_me=1 / trellis=2 / 8x8dct=1 / cqm=0 / deadzone=21,11 / fast_pskip=0 / chroma_qp_offset=-3 / threads=6 / lookahead_threads=1 / sliced_threads=0 / slices=4 / nr=0 / decimate=1 / interlaced=0 / bluray_compat=0 / constrained_intra=0 / bframes=5 / b_pyramid=2 / b_adapt=2 / b_bias=0 / direct=3 / weightb=1 / open_gop=0 / weightp=2 / keyint=240 / keyint_min=24 / scenecut=40 / intra_refresh=0 / rc_lookahead=60 / rc=2pass / mbtree=1 / bitrate=8016 / ratetol=2.0 / qcomp=0.60 / qpmin=0 / qpmax=51 / qpstep=4 / cplxblur=20.0 / qblur=0.5 / ip_ratio=1.40 / aq=1:1.00
Language : English
Default : Yes
Forced : No

Audio #1
ID : 2
Format : AC-3
Format/Info : Audio Coding 3
Mode extension : CM (complete main)
Format settings, Endianness : Big
Codec ID : A_AC3
Duration : 1h 10mn
Bit rate mode : Constant
Bit rate : 192 Kbps
Channel(s) : 2 channels
Channel positions : Front: L R
Sampling rate : 48.0 KHz
Bit depth : 16 bits
Compression mode : Lossy
Stream size : 97.2 MiB (2%)
Title : Дубляж
Language : Russian
Default : Yes
Forced : No

Audio #2
ID : 3
Format : AC-3
Format/Info : Audio Coding 3
Mode extension : CM (complete main)
Format settings, Endianness : Big
Codec ID : A_AC3
Duration : 1h 10mn
Bit rate mode : Constant
Bit rate : 640 Kbps
Channel(s) : 6 channels
Channel positions : Front: L C R, Side: L R, LFE
Sampling rate : 48.0 KHz
Bit depth : 16 bits
Compression mode : Lossy
Stream size : 324 MiB (7%)
Language : English
Default : No
Forced : No

Text
ID : 4
Format : UTF-8
Codec ID : S_TEXT/UTF8
Codec ID/Info : UTF-8 Plain Text
Language : Russian
Default : Yes
Forced : No

Menu
00:00:00.000 : en:00:00:00.000
00:05:00.000 : en:00:05:00.000
00:10:00.000 : en:00:10:00.000
00:15:00.000 : en:00:15:00.000
00:20:00.000 : en:00:20:00.000
00:25:00.000 : en:00:25:00.000
00:30:00.000 : en:00:30:00.000
00:35:00.000 : en:00:35:00.000
00:40:00.000 : en:00:40:00.000
00:45:00.000 : en:00:45:00.000
00:50:00.000 : en:00:50:00.000
00:55:00.000 : en:00:55:00.000
01:00:00.000 : en:01:00:00.000
01:05:00.000 : en:01:05:00.000
01:10:00.000 : en:01:10:00.000






Релиз Группа | Автор Рипа:



   Похожие торренты   Торрент   Размер 
В этой теме нет новых непрочитанных сообщений. LEGO Бэтмен: Супер-герои DC объединяются / LEGO Batman: The Movie - DC Super Heroes Unite (2013) BDRip 720p | D

63 | 7

2.49 ГБ

В этой теме нет новых непрочитанных сообщений. LEGO Бэтмен: Супер-герои DC объединяются / LEGO Batman: The Movie - DC Super Heroes Unite (2013) DVD9 | D

25 | 2

6.57 ГБ

В этой теме нет новых непрочитанных сообщений. LEGO Бэтмен: Супер-герои DC объединяются / LEGO Batman: The Movie - DC Super Heroes Unite (2013) HDRip | D

164 | 12

1.37 ГБ

В этой теме нет новых непрочитанных сообщений. LEGO: Бэтмен: Супергерои DC объединяются / LEGO Batman: The Movie - DC Super Heroes Unite (2013) HDRip | D

92 | 10

744.14 МБ

В этой теме нет новых непрочитанных сообщений. LEGO: Бэтмен: Супергерои DC объединяются / LEGO Batman: The Movie - DC Superheroes Unite (2013) BDRip-AVC от potroks | D

537 | 13

1.46 ГБ

В этой теме нет новых непрочитанных сообщений. LEGO Marvel Супер Герои: Максимальная перегрузка / LEGO Marvel Super Heroes: Maximum Overload [01x01-05] (2013) WEB-DL 720p

139 | 8

303.45 МБ

В этой теме нет новых непрочитанных сообщений. LEGO Бэтмен: В осаде / Lego DC Comics: Batman Be-Leaguered (2014) BDRip 1080p | D

625 | 18

2.51 ГБ




Вы не можете начинать темы
Вы не можете отвечать на сообщения
Вы не можете редактировать свои сообщения
Вы не можете удалять свои сообщения
Вы не можете добавлять вложения

Перейти:  
Для Мосгорсуда, Роскомнадзора и рекламодателей: mosgorsud-torrent[собачка]yandex.ru
 Вход
ppkBB3cker v.2 © 2008-2014 @ PPK
[ Time : 0.021s | 14 Queries | GZIP : On ]

Торрент трекер RUTOR.IN, Не можете зайти на rutor.org? Какой новый адрес рутор? Какое зеркало рутор? Не работает rutor.org и зеркала? Тогда наш торрент специально для вас. Rutor.in неофициальное зеркало rutor. В случае если у Вас заблокирован rutor или вдруг Вы не можете на него зайти, то Вы без труда сможете скачать бесплатно и без рекламы последние новинки кино, игр, сериалов и прочего у нас, на Rutor.in. Не нужно использовать прокси, чтобы зайти на рутор, достаточно воспользоваться нашим ресурсом. Все новые фильмы, игры, сериалы, книги и музыка за 2013 и 2014 годы через торрент бесплатно. Скачивайте фильмы в хорошем качестве, игры для пк, xbox, playstation без регистрации. У нас вы найдете новые Зарубежные сериалы и Русские сериалы 2013, 2014, 2015 годов. Оставайтесь с нами, качайте любимые фильмы, игры, сериалы, книги и музыку.