img image001 image001 image001 image001 image001 image001 image001 image001 image001 image001 image001 image001 image001 image001 image001

Planets Sun Sun Sun
Статистика раздачи
Автор: Снежана | Размер: 2.01 ГБ | Добавлен: 27 июл 2013
Раздают: 67    Качают: 12
Скачать торрент
Скачать торрент
Описание торрента

СообщениеДобавлено: 27 июл 2013 

#77

Информация о фильме
Название: Скуби-Ду! Истории летнего лагеря
Оригинальное название: Scooby-Doo! Camp Scare
Год выхода: 2010
Жанр: Мультфильм, комедия, детектив, приключения, семейный
Режиссер: Этан Сполдинг
Озвучивали: Фрэнк Уэлкер, Минди Кон, Мэттью Лиллард, Грэй ДеЛисл, Ди Брэдли Бейкер, Марк Хэмилл, Фил ЛаМарр, Скотт Менвилль, Стивен Рут, Тара Стронг, Лорен Том

О мультфильме: Добро пожаловать в лагерь «Лосёнок», где приветливые вожатые, бесконечные мероприятия и много жутких местных легенд! Кстати, каждый раз, когда кто-то рассказывает историю о призраках, жуткие существа оживают! Но команду Корпорации Тайн не так легко испугать, так что собирайтесь вокруг костра, чтобы поджарить плохих парней. Скуби-Ду, Шэгги, Фредди, Дафни и Велма ищут подсказки для разгадки тайн Дровосека, Рыбака и Банши Чёрного Каньона. И, конечно, Шэгги и Скуби-Ду идут по горячим следам в деле «А что у нас на ужин»! Присоединяйтесь к летнему веселью с Корпорацией Тайн в этом уморительном, полнометражном мультфильме, который придаёт новый смысл понятию «дух лагеря»!



Страна: США / Warner Bros. Animation, Hanna-Barbera
Продолжительность: 01:12:32
Перевод: Дублированный (Пифагор) / Дублированный (СТС)
Дата релиза: 01.07.2013

Файл
Кодек: MPEG-4 AVC
Качество: BDRip (AVC)
Видео: 1024x576, 2872 Кбит/с
Звук: ДБ (Пифагор) (АС3, 2 ch, 192 Кбит/с) / ДБ (СТС) (АС3, 2 ch, 256 Кбит/с) / Английский (АС3, 6 ch, 640 Кбит/с)

Семпл







Unique ID : 252326998522923474541729035118229789762 (0xBDD4698776C2BFBE87B04240D0731C42)
Complete name : D:Skubi-Du.Istorii.letnego.lagerja.2010.X264.BDRip.(AVC).Sheikn.mkv
Format : Matroska
Format version : Version 2
File size : 2.01 GiB
Duration : 1h 12mn
Overall bit rate : 3 962 Kbps
Encoded date : UTC 2013-01-16 16:59:41
Writing application : mkvmerge v4.0.0 ('The Stars were mine') сборка от Jun 6 2010 16:18:42
Writing library : libebml v1.0.0 + libmatroska v1.0.0
Video #1
ID : 1
Format : AVC
Format/Info : Advanced Video Codec
Format profile : Main@L3.1
Format settings, CABAC : Yes
Format settings, ReFrames : 5 frames
Codec ID : V_MPEG4/ISO/AVC
Bit rate : 2 872 Kbps
Width : 1 024 pixels
Height : 576 pixels
Display aspect ratio : 16:9
Frame rate mode : Variable
Original frame rate : 23.976 fps
Color space : YUV
Chroma subsampling : 4:2:0
Bit depth : 8 bits
Scan type : Progressive
Bits/(Pixel*Frame) : 0.203
Writing library : x264 core 65
Encoding settings : cabac=1 / ref=5 / deblock=1:-2:-2 / analyse=0x1:0x111 / me=umh / subme=8 / psy_rd=1.0:0.0 / mixed_ref=0 / me_range=21 / chroma_me=1 / trellis=2 / 8x8dct=0 / cqm=0 / deadzone=21,11 / chroma_qp_offset=-2 / threads=6 / nr=0 / decimate=1 / mbaff=0 / bframes=2 / b_pyramid=0 / b_adapt=1 / b_bias=0 / direct=1 / wpredb=0 / keyint=240 / keyint_min=24 / scenecut=40(pre) / rc=2pass / bitrate=2872 / ratetol=1.0 / qcomp=0.60 / qpmin=10 / qpmax=51 / qpstep=4 / cplxblur=20.0 / qblur=0.5 / ip_ratio=1.40 / pb_ratio=1.30 / aq=1:1.00
Language : English
Default : Yes
Forced : No
Color primaries : BT.709
Transfer characteristics : BT.709
Matrix coefficients : BT.709
Audio #2
ID : 2
Format : AC-3
Format/Info : Audio Coding 3
Mode extension : CM (complete main)
Format settings, Endianness : Big
Codec ID : A_AC3
Duration : 1h 12mn
Bit rate mode : Constant
Bit rate : 192 Kbps
Channel(s) : 2 channels
Channel positions : Front: L R
Sampling rate : 48.0 KHz
Bit depth : 16 bits
Compression mode : Lossy
Stream size : 99.6 MiB (5%)
Title : Дублированный (Пифагор)
Language : Russian
Default : Yes
Forced : No
Audio #3
ID : 3
Format : AC-3
Format/Info : Audio Coding 3
Mode extension : CM (complete main)
Format settings, Endianness : Big
Codec ID : A_AC3
Duration : 1h 12mn
Bit rate mode : Constant
Bit rate : 256 Kbps
Channel(s) : 2 channels
Channel positions : Front: L R
Sampling rate : 48.0 KHz
Bit depth : 16 bits
Compression mode : Lossy
Stream size : 133 MiB (6%)
Title : Дублированный (СТС)
Language : Russian
Default : No
Forced : No
Audio #4
ID : 4
Format : AC-3
Format/Info : Audio Coding 3
Mode extension : CM (complete main)
Format settings, Endianness : Big
Codec ID : A_AC3
Duration : 1h 12mn
Bit rate mode : Constant
Bit rate : 640 Kbps
Channel(s) : 6 channels
Channel positions : Front: L C R, Side: L R, LFE
Sampling rate : 48.0 KHz
Bit depth : 16 bits
Compression mode : Lossy
Stream size : 332 MiB (16%)
Title : Оригинал
Language : English
Default : No
Forced : No


Релиз от:



   Похожие торренты   Торрент   Размер 
В этой теме нет новых непрочитанных сообщений. Скуби-Ду! Истории летнего лагеря / Scooby-Doo! Camp Scare (2010) BDRip от HELLYWOOD

11 | 6

1.46 ГБ

В этой теме нет новых непрочитанных сообщений. Скуби-Ду! Истории летнего лагеря / Scooby-Doo! Camp Scare (2010) BDRip от HQCLUB

19 | 4

1.09 ГБ

В этой теме нет новых непрочитанных сообщений. Скуби-Ду! Истории летнего лагеря / Scooby-Doo! Camp Scare (2010) BDRip-AVC от Leonardo and Scarabey

82 | 10

1.13 ГБ

В этой теме нет новых непрочитанных сообщений. Скуби-Ду! Истории летнего лагеря / Scooby-Doo! Camp Scare (2010) DVDRip

131 | 6

702.3 МБ

В этой теме нет новых непрочитанных сообщений. Скуби-Ду! Истории летнего лагеря / Scooby-Doo! Camp Scare (2010) BDRip 720p от Leonardo and Scarabey | D

73 | 12

2.12 ГБ

В этой теме нет новых непрочитанных сообщений. Скуби-Ду! Летние страшилки / Лагерные страшилки / Scooby-Doo!: Camp Scare (2010) BDRip-AVC | iPad

8 | 3

1.24 ГБ

В этой теме нет новых непрочитанных сообщений. Скуби Ду едет в Голливуд / Scooby-Doo Goes Hollywood (1979) DVDRip от Sheikn

26 | 5

697.88 МБ




Вы не можете начинать темы
Вы не можете отвечать на сообщения
Вы не можете редактировать свои сообщения
Вы не можете удалять свои сообщения
Вы не можете добавлять вложения

Перейти:  
Для Мосгорсуда, Роскомнадзора и рекламодателей: mosgorsud-torrent[собачка]yandex.ru
 Вход
ppkBB3cker v.2 © 2008-2014 @ PPK
[ Time : 0.051s | 14 Queries | GZIP : Off ]

Торрент трекер RUTOR.IN, Не можете зайти на rutor.org? Какой новый адрес рутор? Какое зеркало рутор? Не работает rutor.org и зеркала? Тогда наш торрент специально для вас. Rutor.in неофициальное зеркало rutor. В случае если у Вас заблокирован rutor или вдруг Вы не можете на него зайти, то Вы без труда сможете скачать бесплатно и без рекламы последние новинки кино, игр, сериалов и прочего у нас, на Rutor.in. Не нужно использовать прокси, чтобы зайти на рутор, достаточно воспользоваться нашим ресурсом. Все новые фильмы, игры, сериалы, книги и музыка за 2013 и 2014 годы через торрент бесплатно. Скачивайте фильмы в хорошем качестве, игры для пк, xbox, playstation без регистрации. У нас вы найдете новые Зарубежные сериалы и Русские сериалы 2013, 2014, 2015 годов. Оставайтесь с нами, качайте любимые фильмы, игры, сериалы, книги и музыку.