img image001 image001 image001 image001 image001 image001 image001 image001 image001 image001 image001 image001 image001 image001 image001

Planets Sun Sun Sun
Статистика раздачи
Автор: Снежана | Размер: 1.9 ГБ | Добавлен: 27 июл 2013
Раздают: 267    Качают: 56
Скачать торрент
Скачать торрент
Описание торрента

СообщениеДобавлено: 27 июл 2013 

#77

Страна: Россия
Год выпуска: 2008 - 2013
Жанр: мультфильм, короткометражка, детский, семейный

Продолжительность: ~ 02:24:00

Режиссер: Владимир Саков

Роли озвучивали:
Диск 1: Алексей Нилов, Анастасия Мельникова, Александр Мокин, Наталья Крузе, Екатерина Горелова, Лариса Брохман, Ольга Шорохова, Дмитрий Филимонов
Диски 2 и 3: Лариса Брохман, Ольга Шорохова, Дмитрий Филимонов, Олег Куценко

Описание: Главные герои добрые человечки с планеты Барбарелла: сказочный профессор Дружбы — Лелик и малыши Буба, Биби, Баз, Боня и Земная девочка Бьянка. Все они учатся в школе Дружбы, умеют дружить сами и хотят научить этому всю Вселенную.





Бонусы: Клипы детской группы Барбарики, Игры для РС.

Качество: DVDRip (3 x DVD5 R5)
Формат: AVI

Видео 1: 720x400 (16:9), 25.000 fps, XViD ~ 2000 kbps avg, 0.278 bit/pixel
Видео 2: 720x544 (4:3), 25.000 fps, XViD ~ 2000 kbps avg, 0.204 bit/pixel
Видео 3: 688x400 (1.720:1), 25.000 fps, XViD ~ 2000 kbps avg, 0.290 bit/pixel
Аудио: 48 kHz, АС3 2 ch, 192 kbps, русский

Раздача от:
Внимание! Раздача ведётся путём добавления новых серий; при каждом добавлении создаётся новый торрент-файл. Чтобы начать докачку новой серии, пользователям необходимо сделать следующее:
(1) остановить скачивание;
(2) удалить старый торрент-файл у себя из клиента (старые серии удалять не надо);
(3) скачать новый торрент-файл и запустить его у себя в клиенте вместо старого, при этом указать клиенту путь в старую папку куда и должно происходить скачивание новых серий.
Ваш клиент при этом должен произвести хеширование (проверку) старой папки (если он не производит проверку сам – помогите ему сделать это), и будет докачивать только те серии которых у вас ещё нет. Старые серии при этом не удаляются, а продолжают раздаваться!
Если вы уже удалили старые серии, то предотвратить повторную закачку старых серий можно, отжав галочку в соответствующих местах при запуске нового торрент-файла. Желательно старые серии не удалять как можно дольше, чтобы релизёр не столько продолжал раздавать старые серии, а смог сконцентрироваться на новых.

Общее
Полное имя : Lelik.i.Barbariki.2008.O.DVDRip_[Youtracker]_by_avproh�11.avi
Формат : AVI
Формат/Информация : Audio Video Interleave
Размер файла : 59,8 Мбайт
Продолжительность : 3 м. 48 с.
Общий поток : 2198 Кбит/сек
Программа кодирования : VirtualDubModRus 1.5.10.2 (build 2542/release)
Библиотека кодирования : VirtualDubMod build 2542/release

Видео
Идентификатор : 0
Формат : MPEG-4 Visual
Профиль формата : Advanced Simple@L5
Параметр BVOP формата : 1
Параметр QPel формата : Нет
Параметр GMC формата : Без точки перехода
Параметр матрицы формата : Выборочная
Идентификатор кодека : XVID
Идентификатор кодека/Подсказка : XviD
Продолжительность : 3 м. 48 с.
Битрейт : 1996 Кбит/сек
Ширина : 720 пикселей
Высота : 544 пикселя
Соотношение сторон : 4:3
Частота кадров : 25,000 кадров/сек
Цветовое пространство : YUV
Субдискретизация насыщенности : 4:2:0
Битовая глубина : 8 бит
Тип развёртки : Прогрессивная
Метод сжатия : С потерями
Бит/(Пиксели*Кадры) : 0.204
Размер потока : 54,3 Мбайт (91%)
Библиотека кодирования : XviD 65

Аудио
Идентификатор : 1
Формат : AC-3
Формат/Информация : Audio Coding 3
Расширение режима : CM (complete main)
Параметр Endianness формата : Big
Идентификатор кодека : 2000
Продолжительность : 3 м. 48 с.
Вид битрейта : Постоянный
Битрейт : 192 Кбит/сек
Каналы : 2 канала
Расположение каналов : Front: L R
Частота : 48,0 КГц
Битовая глубина : 16 бит
Метод сжатия : С потерями
Размер потока : 5,23 Мбайт (9%)
Выравнивание : Разделение по промежуткам
Продолжительность промежутка : 40 мс. (1,00 видеокадр)
Время предзагрузки промежутка : 500 мс.

Общее
Полное имя : Lelik.i.Barbariki.2008.O.DVDRip_[Youtracker]_by_avproh�15.avi
Формат : AVI
Формат/Информация : Audio Video Interleave
Размер файла : 94,0 Мбайт
Продолжительность : 5 м. 58 с.
Общий поток : 2199 Кбит/сек
Программа кодирования : VirtualDubModRus 1.5.10.2 (build 2542/release)
Библиотека кодирования : VirtualDubMod build 2542/release

Видео
Идентификатор : 0
Формат : MPEG-4 Visual
Профиль формата : Advanced Simple@L5
Параметр BVOP формата : 1
Параметр QPel формата : Нет
Параметр GMC формата : Без точки перехода
Параметр матрицы формата : Выборочная
Идентификатор кодека : XVID
Идентификатор кодека/Подсказка : XviD
Продолжительность : 5 м. 58 с.
Битрейт : 1997 Кбит/сек
Ширина : 720 пикселей
Высота : 400 пикселей
Соотношение сторон : 16:9
Частота кадров : 25,000 кадров/сек
Цветовое пространство : YUV
Субдискретизация насыщенности : 4:2:0
Битовая глубина : 8 бит
Тип развёртки : Прогрессивная
Метод сжатия : С потерями
Бит/(Пиксели*Кадры) : 0.277
Размер потока : 85,4 Мбайт (91%)
Библиотека кодирования : XviD 65

Аудио
Идентификатор : 1
Формат : AC-3
Формат/Информация : Audio Coding 3
Расширение режима : CM (complete main)
Параметр Endianness формата : Big
Идентификатор кодека : 2000
Продолжительность : 5 м. 58 с.
Вид битрейта : Постоянный
Битрейт : 192 Кбит/сек
Каналы : 2 канала
Расположение каналов : Front: L R
Частота : 48,0 КГц
Битовая глубина : 16 бит
Метод сжатия : С потерями
Размер потока : 8,21 Мбайт (9%)
Выравнивание : Разделение по промежуткам
Продолжительность промежутка : 40 мс. (1,00 видеокадр)
Время предзагрузки промежутка : 500 мс.

Общее
Полное имя : Lelik.i.Barbariki.2008.O.DVDRip_[Youtracker]_by_avproh�31.avi
Формат : AVI
Формат/Информация : Audio Video Interleave
Размер файла : 92,7 Мбайт
Продолжительность : 5 м. 53 с.
Общий поток : 2198 Кбит/сек
Программа кодирования : VirtualDubModRus 1.5.10.2 (build 2542/release)
Библиотека кодирования : VirtualDubMod build 2542/release

Видео
Идентификатор : 0
Формат : MPEG-4 Visual
Профиль формата : Advanced Simple@L5
Параметр BVOP формата : 1
Параметр QPel формата : Нет
Параметр GMC формата : Без точки перехода
Параметр матрицы формата : Выборочная
Идентификатор кодека : XVID
Идентификатор кодека/Подсказка : XviD
Продолжительность : 5 м. 53 с.
Битрейт : 1997 Кбит/сек
Ширина : 688 пикселей
Высота : 400 пикселей
Соотношение сторон : 1,720
Частота кадров : 25,000 кадров/сек
Цветовое пространство : YUV
Субдискретизация насыщенности : 4:2:0
Битовая глубина : 8 бит
Тип развёртки : Прогрессивная
Метод сжатия : С потерями
Бит/(Пиксели*Кадры) : 0.290
Размер потока : 84,2 Мбайт (91%)
Библиотека кодирования : XviD 65

Аудио
Идентификатор : 1
Формат : AC-3
Формат/Информация : Audio Coding 3
Расширение режима : CM (complete main)
Параметр Endianness формата : Big
Идентификатор кодека : 2000
Продолжительность : 5 м. 53 с.
Вид битрейта : Постоянный
Битрейт : 192 Кбит/сек
Каналы : 2 канала
Расположение каналов : Front: L R
Частота : 48,0 КГц
Битовая глубина : 16 бит
Метод сжатия : С потерями
Размер потока : 8,09 Мбайт (9%)
Выравнивание : Разделение по промежуткам
Продолжительность промежутка : 40 мс. (1,00 видеокадр)
Время предзагрузки промежутка : 500 мс.



Диск Лелик и Барбарики
Серии:
0. Вступление
1. Барбарелла
2. Однажды в Африке
3. Мальчик в океане
4. МКС
5. Заяц

Клипы:
1. Вдалеке от мамы
2. Волна
3. Московская
4. Плакали зверушки
5. Барбарики

Игры:
1. Буба пилот
2. Поймай пчел
3. Раскраска
4. Освободи пчел
5. Пазл

Диск Лелик и Барбарики: Звездные войны
Серии:
1. Чёрная дыра
2. Розовый компот (часть 1)
3. Розовый компот (часть 2)
4. Битва гигантов
5. Звёздные войны

Клипы:
1. Разукрасим все планеты
2. Друзья

Игры:
1. Нарисуй по точкам
2. Конструктор
3. Логическая пара

Диск Лелик и Барбарики: Не уроните шарик
Серии:
1. Белый медведь (часть 1)
2. Белый медведь (часть 2)
3. Мечтатель (часть 1)
4. Мечтатель (часть 2)
5. Планета неговиков

Клипы:
1. Человек хороший
2. Не уроните шарик



   Похожие торренты   Торрент   Размер 
В этой теме нет новых непрочитанных сообщений. Лелик и Барбарики [01-15 из ? + бонусы + игры] 2008-2013 DVDRip-AVC от Youtracker | лицензия

203 | 37

1.88 ГБ

В этой теме нет новых непрочитанных сообщений. Лелик и Барбарики [01-15 из ? + бонусы + игры] 2008-2013 3xDVD5 R5 от Youtracker | лицензия

52 | 5

6.71 ГБ

В этой теме нет новых непрочитанных сообщений. Сваты [S01-06 + Бонусы] (2008-2013) WEBRip, SATRip, WEB-DLRip, DVDRip от MegaPeer

66 | 137

55.19 ГБ

В этой теме нет новых непрочитанных сообщений. Фиксики [S01-11x01-52 + бонусы] (2010-2012) DVDRip от Youtracker

1092 | 103

5.19 ГБ

В этой теме нет новых непрочитанных сообщений. Барбарики - Песни от Любаши (2008) МР3

275 | 59

123.95 МБ

В этой теме нет новых непрочитанных сообщений. Порочные игры / Stoker (2013) BDRip от Youtracker | P | Лицензия

180 | 15

1.45 ГБ

В этой теме нет новых непрочитанных сообщений. Порочные игры / Stoker (2013) BDRip от Youtracker | P | Лицензия

87 | 8

745.12 МБ




Вы не можете начинать темы
Вы не можете отвечать на сообщения
Вы не можете редактировать свои сообщения
Вы не можете удалять свои сообщения
Вы не можете добавлять вложения

Перейти:  
Для Мосгорсуда, Роскомнадзора и рекламодателей: mosgorsud-torrent[собачка]yandex.ru
 Вход
ppkBB3cker v.2 © 2008-2014 @ PPK
[ Time : 0.579s | 14 Queries | GZIP : Off ]

Торрент трекер RUTOR.IN, Не можете зайти на rutor.org? Какой новый адрес рутор? Какое зеркало рутор? Не работает rutor.org и зеркала? Тогда наш торрент специально для вас. Rutor.in неофициальное зеркало rutor. В случае если у Вас заблокирован rutor или вдруг Вы не можете на него зайти, то Вы без труда сможете скачать бесплатно и без рекламы последние новинки кино, игр, сериалов и прочего у нас, на Rutor.in. Не нужно использовать прокси, чтобы зайти на рутор, достаточно воспользоваться нашим ресурсом. Все новые фильмы, игры, сериалы, книги и музыка за 2013 и 2014 годы через торрент бесплатно. Скачивайте фильмы в хорошем качестве, игры для пк, xbox, playstation без регистрации. У нас вы найдете новые Зарубежные сериалы и Русские сериалы 2013, 2014, 2015 годов. Оставайтесь с нами, качайте любимые фильмы, игры, сериалы, книги и музыку.