img image001 image001 image001 image001 image001 image001 image001 image001 image001 image001 image001 image001 image001 image001 image001

Planets Sun Sun Sun
Статистика раздачи
Автор: Снежана | Размер: 1.88 ГБ | Добавлен: 27 июл 2013
Раздают: 203    Качают: 37
Скачать торрент
Скачать торрент
Описание торрента

СообщениеДобавлено: 27 июл 2013 

#77

Страна: Россия
Год выпуска: 2008 - 2013
Жанр: мультфильм, короткометражка, детский, семейный

Продолжительность: ~ 02:24:00

Режиссер: Владимир Саков

Роли озвучивали:
Диск 1: Алексей Нилов, Анастасия Мельникова, Александр Мокин, Наталья Крузе, Екатерина Горелова, Лариса Брохман, Ольга Шорохова, Дмитрий Филимонов
Диски 2 и 3: Лариса Брохман, Ольга Шорохова, Дмитрий Филимонов, Олег Куценко

Описание: Главные герои добрые человечки с планеты Барбарелла: сказочный профессор Дружбы — Лелик и малыши Буба, Биби, Баз, Боня и Земная девочка Бьянка. Все они учатся в школе Дружбы, умеют дружить сами и хотят научить этому всю Вселенную.





Бонусы: Клипы детской группы Барбарики, Игры для РС.

Качество: DVDRip-AVC (3 x DVD5 R5)
Формат: MKV

Видео 1: 720x576@1024x576 (16:9), 25.000 fps, H264 ~ 2006 kbps avg, 0.193 bit/pixel
Видео 2: 720x574@752x574 (4:3), 25.000 fps, H264 ~ 2006 kbps avg, 0.194 bit/pixel
Видео 3: 688x576@992x576 (1.727:1), 25.000 fps, H264 ~ 2006 kbps avg, 0.202 bit/pixel
Аудио: 48 kHz, АС3 2 ch, 192 kbps, русский

Раздача от:
Внимание! Раздача ведётся путём добавления новых серий; при каждом добавлении создаётся новый торрент-файл. Чтобы начать докачку новой серии, пользователям необходимо сделать следующее:
(1) остановить скачивание;
(2) удалить старый торрент-файл у себя из клиента (старые серии удалять не надо);
(3) скачать новый торрент-файл и запустить его у себя в клиенте вместо старого, при этом указать клиенту путь в старую папку куда и должно происходить скачивание новых серий.
Ваш клиент при этом должен произвести хеширование (проверку) старой папки (если он не производит проверку сам – помогите ему сделать это), и будет докачивать только те серии которых у вас ещё нет. Старые серии при этом не удаляются, а продолжают раздаваться!
Если вы уже удалили старые серии, то предотвратить повторную закачку старых серий можно, отжав галочку в соответствующих местах при запуске нового торрент-файла. Желательно старые серии не удалять как можно дольше, чтобы релизёр не столько продолжал раздавать старые серии, а смог сконцентрироваться на новых.

Общее
Полное имя : Lelik.i.Barbariki.2008.O.DVDRip-AVC_[Youtracker]_by_avproh\021.mkv
Формат : Matroska
Версия формата : Version 4 / Version 2
Размер файла : 92,0 Мбайт
Продолжительность : 5 м. 53 с.
Общий поток : 2182 Кбит/сек
Дата кодирования : UTC 2013-07-04 06:29:23
Программа кодирования : mkvmerge v6.1.0 ('Old Devil') built on Mar 2 2013 14:32:37
Библиотека кодирования : libebml v1.3.0 + libmatroska v1.4.0

Видео
Идентификатор : 1
Формат : AVC
Формат/Информация : Advanced Video Codec
Профиль формата : High@L4.1
Параметр CABAC формата : Да
Параметр ReFrames формата : 11 кадров
Идентификатор кодека : V_MPEG4/ISO/AVC
Продолжительность : 5 м. 53 с.
Битрейт : 2006 Кбит/сек
Ширина : 720 пикселей
Высота : 576 пикселей
Соотношение сторон : 16:9
Режим частоты кадров : Постоянный
Частота кадров : 25,000 кадров/сек
Стандарт вещания : PAL
Цветовое пространство : YUV
Субдискретизация насыщенности : 4:2:0
Битовая глубина : 8 бит
Тип развёртки : Прогрессивная
Бит/(Пиксели*Кадры) : 0.193
Размер потока : 82,1 Мбайт (89%)
Библиотека кодирования : x264 core 130 r2273 b3065e6
Настройки программы : cabac=1 / ref=11 / deblock=1:-2:-1 / analyse=0x3:0x113 / me=umh / subme=9 / psy=1 / psy_rd=1.00:0.20 / mixed_ref=1 / me_range=32 / chroma_me=1 / trellis=1 / 8x8dct=1 / cqm=0 / deadzone=21,11 / fast_pskip=0 / chroma_qp_offset=-3 / threads=6 / lookahead_threads=1 / sliced_threads=0 / nr=0 / decimate=0 / interlaced=0 / bluray_compat=0 / constrained_intra=0 / bframes=8 / b_pyramid=2 / b_adapt=2 / b_bias=0 / direct=3 / weightb=1 / open_gop=0 / weightp=2 / keyint=250 / keyint_min=25 / scenecut=40 / intra_refresh=0 / rc_lookahead=60 / rc=2pass / mbtree=1 / bitrate=2006 / ratetol=1.0 / qcomp=0.60 / qpmin=0 / qpmax=69 / qpstep=4 / cplxblur=20.0 / qblur=0.5 / ip_ratio=1.40 / aq=1:1.00
Язык : Russian
Default : Да
Forced : Нет

Аудио
Идентификатор : 2
Формат : AC-3
Формат/Информация : Audio Coding 3
Расширение режима : CM (complete main)
Параметр Endianness формата : Big
Идентификатор кодека : A_AC3
Продолжительность : 5 м. 53 с.
Вид битрейта : Постоянный
Битрейт : 192 Кбит/сек
Каналы : 2 канала
Расположение каналов : Front: L R
Частота : 48,0 КГц
Битовая глубина : 16 бит
Метод сжатия : С потерями
Размер потока : 8,10 Мбайт (9%)
Язык : Russian
Default : Да
Forced : Нет

Общее
Полное имя : Lelik.i.Barbariki.2008.O.DVDRip-AVC_[Youtracker]_by_avproh\011.mkv
Формат : Matroska
Версия формата : Version 4 / Version 2
Размер файла : 59,2 Мбайт
Продолжительность : 3 м. 48 с.
Общий поток : 2177 Кбит/сек
Дата кодирования : UTC 2013-07-04 06:19:44
Программа кодирования : mkvmerge v6.1.0 ('Old Devil') built on Mar 2 2013 14:32:37
Библиотека кодирования : libebml v1.3.0 + libmatroska v1.4.0

Видео
Идентификатор : 1
Формат : AVC
Формат/Информация : Advanced Video Codec
Профиль формата : High@L4.1
Параметр CABAC формата : Да
Параметр ReFrames формата : 11 кадров
Идентификатор кодека : V_MPEG4/ISO/AVC
Продолжительность : 3 м. 48 с.
Битрейт : 2006 Кбит/сек
Ширина : 720 пикселей
Высота : 574 пикселя
Соотношение сторон : 4:3
Режим частоты кадров : Постоянный
Частота кадров : 25,000 кадров/сек
Цветовое пространство : YUV
Субдискретизация насыщенности : 4:2:0
Битовая глубина : 8 бит
Тип развёртки : Прогрессивная
Бит/(Пиксели*Кадры) : 0.194
Размер потока : 52,8 Мбайт (89%)
Библиотека кодирования : x264 core 130 r2273 b3065e6
Настройки программы : cabac=1 / ref=11 / deblock=1:-2:-1 / analyse=0x3:0x113 / me=umh / subme=9 / psy=1 / psy_rd=1.00:0.20 / mixed_ref=1 / me_range=32 / chroma_me=1 / trellis=1 / 8x8dct=1 / cqm=0 / deadzone=21,11 / fast_pskip=0 / chroma_qp_offset=-3 / threads=6 / lookahead_threads=1 / sliced_threads=0 / nr=0 / decimate=0 / interlaced=0 / bluray_compat=0 / constrained_intra=0 / bframes=8 / b_pyramid=2 / b_adapt=2 / b_bias=0 / direct=3 / weightb=1 / open_gop=0 / weightp=2 / keyint=250 / keyint_min=25 / scenecut=40 / intra_refresh=0 / rc_lookahead=60 / rc=2pass / mbtree=1 / bitrate=2006 / ratetol=1.0 / qcomp=0.60 / qpmin=0 / qpmax=69 / qpstep=4 / cplxblur=20.0 / qblur=0.5 / ip_ratio=1.40 / aq=1:1.00
Язык : Russian
Default : Да
Forced : Нет

Аудио
Идентификатор : 2
Формат : AC-3
Формат/Информация : Audio Coding 3
Расширение режима : CM (complete main)
Параметр Endianness формата : Big
Идентификатор кодека : A_AC3
Продолжительность : 3 м. 48 с.
Вид битрейта : Постоянный
Битрейт : 192 Кбит/сек
Каналы : 2 канала
Расположение каналов : Front: L R
Частота : 48,0 КГц
Битовая глубина : 16 бит
Метод сжатия : С потерями
Размер потока : 5,23 Мбайт (9%)
Язык : Russian
Default : Да
Forced : Нет

Общее
Полное имя : Lelik.i.Barbariki.2008.O.DVDRip-AVC_[Youtracker]_by_avproh\031.mkv
Формат : Matroska
Версия формата : Version 4 / Version 2
Размер файла : 91,8 Мбайт
Продолжительность : 5 м. 53 с.
Общий поток : 2176 Кбит/сек
Дата кодирования : UTC 2013-07-04 06:34:08
Программа кодирования : mkvmerge v6.1.0 ('Old Devil') built on Mar 2 2013 14:32:37
Библиотека кодирования : libebml v1.3.0 + libmatroska v1.4.0

Видео
Идентификатор : 1
Формат : AVC
Формат/Информация : Advanced Video Codec
Профиль формата : High@L4.1
Параметр CABAC формата : Да
Параметр ReFrames формата : 11 кадров
Идентификатор кодека : V_MPEG4/ISO/AVC
Продолжительность : 5 м. 53 с.
Битрейт : 2006 Кбит/сек
Ширина : 688 пикселей
Высота : 576 пикселей
Соотношение сторон : 1,727
Соотношение сторон в оригинале : 1,728
Режим частоты кадров : Постоянный
Частота кадров : 25,000 кадров/сек
Цветовое пространство : YUV
Субдискретизация насыщенности : 4:2:0
Битовая глубина : 8 бит
Тип развёртки : Прогрессивная
Бит/(Пиксели*Кадры) : 0.202
Размер потока : 81,9 Мбайт (89%)
Библиотека кодирования : x264 core 130 r2273 b3065e6
Настройки программы : cabac=1 / ref=11 / deblock=1:-2:-1 / analyse=0x3:0x113 / me=umh / subme=9 / psy=1 / psy_rd=1.00:0.20 / mixed_ref=1 / me_range=32 / chroma_me=1 / trellis=1 / 8x8dct=1 / cqm=0 / deadzone=21,11 / fast_pskip=0 / chroma_qp_offset=-3 / threads=9 / lookahead_threads=1 / sliced_threads=0 / nr=0 / decimate=0 / interlaced=0 / bluray_compat=0 / constrained_intra=0 / bframes=8 / b_pyramid=2 / b_adapt=2 / b_bias=0 / direct=3 / weightb=1 / open_gop=0 / weightp=2 / keyint=250 / keyint_min=25 / scenecut=40 / intra_refresh=0 / rc_lookahead=60 / rc=2pass / mbtree=1 / bitrate=2006 / ratetol=1.0 / qcomp=0.60 / qpmin=0 / qpmax=69 / qpstep=4 / cplxblur=20.0 / qblur=0.5 / ip_ratio=1.40 / aq=1:1.00
Язык : Russian
Default : Да
Forced : Нет

Аудио
Идентификатор : 2
Формат : AC-3
Формат/Информация : Audio Coding 3
Расширение режима : CM (complete main)
Параметр Endianness формата : Big
Идентификатор кодека : A_AC3
Продолжительность : 5 м. 53 с.
Вид битрейта : Постоянный
Битрейт : 192 Кбит/сек
Каналы : 2 канала
Расположение каналов : Front: L R
Частота : 48,0 КГц
Битовая глубина : 16 бит
Метод сжатия : С потерями
Размер потока : 8,10 Мбайт (9%)
Язык : Russian
Default : Да
Forced : Нет



Диск Лелик и Барбарики
Серии:
0. Вступление
1. Барбарелла
2. Однажды в Африке
3. Мальчик в океане
4. МКС
5. Заяц

Клипы:
1. Вдалеке от мамы
2. Волна
3. Московская
4. Плакали зверушки
5. Барбарики

Игры:
1. Буба пилот
2. Поймай пчел
3. Раскраска
4. Освободи пчел
5. Пазл

Диск Лелик и Барбарики: Звездные войны
Серии:
1. Чёрная дыра
2. Розовый компот (часть 1)
3. Розовый компот (часть 2)
4. Битва гигантов
5. Звёздные войны

Клипы:
1. Разукрасим все планеты
2. Друзья

Игры:
1. Нарисуй по точкам
2. Конструктор
3. Логическая пара

Диск Лелик и Барбарики: Не уроните шарик
Серии:
1. Белый медведь (часть 1)
2. Белый медведь (часть 2)
3. Мечтатель (часть 1)
4. Мечтатель (часть 2)
5. Планета неговиков

Клипы:
1. Человек хороший
2. Не уроните шарик



   Похожие торренты   Торрент   Размер 
В этой теме нет новых непрочитанных сообщений. Лелик и Барбарики [01-15 из ? + бонусы + игры] 2008-2013 DVDRip от Youtracker | лицензия

267 | 56

1.9 ГБ

В этой теме нет новых непрочитанных сообщений. Лелик и Барбарики [01-15 из ? + бонусы + игры] 2008-2013 3xDVD5 R5 от Youtracker | лицензия

52 | 5

6.71 ГБ

В этой теме нет новых непрочитанных сообщений. Сваты [S01-06 + Бонусы] (2008-2013) WEBRip, SATRip, WEB-DLRip, DVDRip от MegaPeer

77 | 188

55.19 ГБ

В этой теме нет новых непрочитанных сообщений. Фиксики [S01-11x01-52 + бонусы] (2010-2012) DVDRip от Youtracker

1092 | 103

5.19 ГБ

В этой теме нет новых непрочитанных сообщений. Барбарики - Песни от Любаши (2008) МР3

275 | 59

123.95 МБ

В этой теме нет новых непрочитанных сообщений. Порочные игры / Stoker (2013) BDRip от Youtracker | P | Лицензия

180 | 15

1.45 ГБ

В этой теме нет новых непрочитанных сообщений. Порочные игры / Stoker (2013) BDRip от Youtracker | P | Лицензия

87 | 8

745.12 МБ




Вы не можете начинать темы
Вы не можете отвечать на сообщения
Вы не можете редактировать свои сообщения
Вы не можете удалять свои сообщения
Вы не можете добавлять вложения

Перейти:  
Для Мосгорсуда, Роскомнадзора и рекламодателей: mosgorsud-torrent[собачка]yandex.ru
 Вход
ppkBB3cker v.2 © 2008-2014 @ PPK
[ Time : 0.041s | 15 Queries | GZIP : Off ]

cron