img image001 image001 image001 image001 image001 image001 image001 image001 image001 image001 image001 image001 image001 image001 image001

Planets Sun Sun Sun
Статистика раздачи
Автор: Снежана | Размер: 2.9 ГБ | Добавлен: 27 июл 2013
Раздают: 28    Качают: 5
Скачать торрент
Скачать торрент
Описание торрента

СообщениеДобавлено: 27 июл 2013 

#77

Страна: США
Дата выхода: 2003
Жанр: Комедия, мультфильм
Продолжительность: ~22 минут серия
Перевод: Профессиональный (многоголосый закадровый) (MTV)
Субтитры: Нет
Оригинальная аудиодорожка: нет

Режиссер: Мэтт Стоун / Matt Stone, Трей Паркер / Trey Parker

Описание:
Южный парк — американский мультсериал, созданный Мэттом Стоуном и Треем Паркером. Выпускается кабельным телеканалом Comedy Central с 1997 г. Основу сюжета составляют сюрреалистические приключения четырёх мальчиков и их друзей, живущих в маленьком городке Сауc-Парк, штат Колорадо. Сериал высмеивает американскую культуру и текущие мировые события, а также подвергает критике множество глубоких убеждений и табу, благодаря пародии и чёрному юмору.



Качество: WEB-DLRip-AVC / WEB-DL 1080p
Формат: MKV
Видео кодек: H264
Аудио кодек: MP3
Видео: 768x432 (16:9), 23.976 fps, H264, 1 127 Kbps, 0.142 bit/pixel
Аудио: 48 kHz, MPEG Layer 3, 2 ch, ~128.00 kbps avg

Раздача от:


D:South Park.S07.WEB-DLRip-AVC.[YTN]_by_dexter_lexSouth_Park_S07E01.WEB-DLRip-AVC.[YTN]_by_dexter_lex.mkv
General
Unique ID : 172632435830264164551983983078222690756 (0x81DFCC3997D72783819F5DD6513179C4)
Complete name : D:South Park.S07.WEB-DLRip-AVC.[YTN]_by_dexter_lexSouth_Park_S07E01.WEB-DLRip-AVC.[YTN]_by_dexter_lex.mkv
Format : Matroska
Format version : Version 2
File size : 199 MiB
Duration : 22mn 5s
Overall bit rate : 1 258 Kbps
Encoded date : UTC 2013-06-30 15:25:06
Writing application : mkvmerge v6.1.0 ('Old Devil') built on Mar 4 2013 09:10:42
Writing library : libebml v1.3.0 + libmatroska v1.4.0
Video #1
ID : 1
Format : AVC
Format/Info : Advanced Video Codec
Format profile : High@L4.1
Format settings, CABAC : Yes
Format settings, ReFrames : 11 frames
Codec ID : V_MPEG4/ISO/AVC
Duration : 22mn 5s
Bit rate : 1 127 Kbps
Width : 768 pixels
Height : 432 pixels
Display aspect ratio : 16:9
Frame rate : 23.976 fps
Color space : YUV
Chroma subsampling : 4:2:0
Bit depth : 8 bits
Scan type : Progressive
Bits/(Pixel*Frame) : 0.142
Stream size : 175 MiB (88%)
Writing library : x264 core 130 r2273 b3065e6
Encoding settings : cabac=1 / ref=11 / deblock=1:-3:-2 / analyse=0x3:0x113 / me=umh / subme=9 / psy=1 / psy_rd=1.00:0.10 / mixed_ref=1 / me_range=32 / chroma_me=1 / trellis=1 / 8x8dct=1 / cqm=0 / deadzone=21,11 / fast_pskip=0 / chroma_qp_offset=-3 / threads=6 / lookahead_threads=1 / sliced_threads=0 / nr=0 / decimate=1 / interlaced=0 / bluray_compat=0 / constrained_intra=0 / bframes=10 / b_pyramid=2 / b_adapt=1 / b_bias=0 / direct=3 / weightb=1 / open_gop=0 / weightp=2 / keyint=240 / keyint_min=23 / scenecut=40 / intra_refresh=0 / rc_lookahead=60 / rc=2pass / mbtree=1 / bitrate=1127 / ratetol=1.0 / qcomp=0.60 / qpmin=0 / qpmax=69 / qpstep=4 / cplxblur=20.0 / qblur=0.5 / ip_ratio=1.40 / aq=1:1.00
Default : Yes
Forced : No
Audio #2
ID : 2
Format : MPEG Audio
Format version : Version 1
Format profile : Layer 3
Codec ID : A_MPEG/L3
Codec ID/Hint : MP3
Duration : 22mn 5s
Bit rate mode : Constant
Bit rate : 128 Kbps
Channel(s) : 2 channels
Sampling rate : 48.0 KHz
Compression mode : Lossy
Stream size : 20.2 MiB (10%)
Writing library : LAME3.99r
Encoding settings : -m s -V 4 -q 2 -lowpass 17 -b 128
Default : Yes
Forced : No



   Похожие торренты   Торрент   Размер 
В этой теме нет новых непрочитанных сообщений. Южный Парк / South Park [S08] (2004) WEB-DLRip-AVC от Youtracker | MTV

37 | 6

2.72 ГБ

В этой теме нет новых непрочитанных сообщений. Южный Парк / South Park [S06] (2002) WEB-DLRip-AVC от Youtracker | MTV

32 | 10

3.3 ГБ

В этой теме нет новых непрочитанных сообщений. Южный Парк / South Park [S7] (2003) DVDRip

64 | 20

4.37 ГБ

В этой теме нет новых непрочитанных сообщений. Южный Парк / South Park [S14] (2010) WEB-DLRip

138 | 12

2.83 ГБ

В этой теме нет новых непрочитанных сообщений. Южный парк - South Park [S08-14] WEB-DLRip-BDRip 720p

25 | 76

30.4 ГБ

В этой теме нет новых непрочитанных сообщений. Южный Парк / South Park [14x01-04,07-14] (2011) WEB-DLRip

23 | 7

3.1 ГБ

В этой теме нет новых непрочитанных сообщений. Южный Парк / South Park [S01-18] (1997-2015) WEB-DLRip | MTV

165 | 412

85.75 ГБ




Вы не можете начинать темы
Вы не можете отвечать на сообщения
Вы не можете редактировать свои сообщения
Вы не можете удалять свои сообщения
Вы не можете добавлять вложения

Перейти:  
Для Мосгорсуда, Роскомнадзора и рекламодателей: mosgorsud-torrent[собачка]yandex.ru
 Вход
ppkBB3cker v.2 © 2008-2014 @ PPK
[ Time : 1.653s | 16 Queries | GZIP : Off ]

Торрент трекер RUTOR.IN, Не можете зайти на rutor.org? Какой новый адрес рутор? Какое зеркало рутор? Не работает rutor.org и зеркала? Тогда наш торрент специально для вас. Rutor.in неофициальное зеркало rutor. В случае если у Вас заблокирован rutor или вдруг Вы не можете на него зайти, то Вы без труда сможете скачать бесплатно и без рекламы последние новинки кино, игр, сериалов и прочего у нас, на Rutor.in. Не нужно использовать прокси, чтобы зайти на рутор, достаточно воспользоваться нашим ресурсом. Все новые фильмы, игры, сериалы, книги и музыка за 2013 и 2014 годы через торрент бесплатно. Скачивайте фильмы в хорошем качестве, игры для пк, xbox, playstation без регистрации. У нас вы найдете новые Зарубежные сериалы и Русские сериалы 2013, 2014, 2015 годов. Оставайтесь с нами, качайте любимые фильмы, игры, сериалы, книги и музыку.
cron