img image001 image001 image001 image001 image001 image001 image001 image001 image001 image001 image001 image001 image001 image001 image001

Planets Sun Sun Sun
Статистика раздачи
Автор: Снежана | Размер: 8.09 ГБ | Добавлен: 27 июл 2013
Раздают: 0    Качают: 2
Скачать торрент
Скачать торрент
Описание торрента

СообщениеДобавлено: 27 июл 2013 

#77

Информация о фильме
Название: Маша и Медведь
Год выхода: 2009-2012
Жанр: мультфильм, короткометражный, комедия, семейный
Режиссер: Олег Ужинов, Денис Червяцов
В ролях: Алина Кукушкина, Эдуард Назаров, Борис Кутневич

О фильме:
Сериал рассчитан в первую очередь на детскую аудиторию (от 3 до 9 лет), и поэтому форма изложения материала будет адаптирована для детского восприятия, но не будет чрезмерно упрощенной. Сериал планируется действительно семейным, интересным для всех возрастов, чтобы взрослые могли посмеяться над приключениями Маши и Медведя, вспомнив собственное детство. Несмотря на то, что персонажи для зрителя являются знакомыми с детства по русской народной сказке, предполагается некоторая адаптация зрительского восприятия к новой трактовке старой истории - персонажи живут в наше время, их быт, хоть и абсурден, но современен, их отношения - это отношения не девочки и зверя, а ребенка и взрослого, маленького человечка и огромного мира.



Страна: Россия, cтудия "Анимаккорд"
Продолжительность: 02:59:40
Перевод: Оригинал

Файл
Кодек: H264
Качество: BDRip 1080p (источник: Blu-ray Remux)
Видео: 1920x1080, 5804 Kbps, 23,976 fps
Звук: 48 kHz, AC3, 6c, 640 kbps
Субтитры: Нет

Семпл



Общее
Уникальный идентификатор : 185767445072520811564962212444312465049 (0x8BC1822E168AB0008B42164B52E46E99)
Формат : Matroska
Версия формата : Version 4 / Version 2
Размер файла : 8,09 Гбайт
Продолжительность : 2 ч. 59 м.
Общий поток : 6446 Кбит/сек
Дата кодирования : UTC 2013-02-07 13:37:52
Программа кодирования : mkvmerge v6.0.0 ('Coming Up For Air') built on Jan 20 2013 09:52:00
Библиотека кодирования : libebml v1.3.0 + libmatroska v1.4.0

Видео
Идентификатор : 1
Формат : AVC
Формат/Информация : Advanced Video Codec
Профиль формата : High@L4.1
Параметр CABAC формата : Да
Параметр ReFrames формата : 4 кадра
Идентификатор кодека : V_MPEG4/ISO/AVC
Продолжительность : 2 ч. 59 м.
Битрейт : 5804 Кбит/сек
Ширина : 1920 пикселей
Высота : 1080 пикселей
Соотношение сторон : 16:9
Режим частоты кадров : Постоянный
Частота кадров : 24,000 кадра/сек
Цветовое пространство : YUV
Субдискретизация насыщенности : 4:2:0
Битовая глубина : 8 бит
Тип развёртки : Прогрессивная
Бит/(Пиксели*Кадры) : 0.117
Размер потока : 7,13 Гбайт (88%)
Заголовок : Маша и Медведь (01-25) (2009-2012) BDRip 1080p от Dimok
Библиотека кодирования : x264 core 125 r2208 d9d2288
Настройки программы : cabac=1 / ref=4 / deblock=1:0:0 / analyse=0x3:0x133 / me=umh / subme=11 / psy=1 / psy_rd=1.00:0.50 / mixed_ref=1 / me_range=32 / chroma_me=1 / trellis=2 / 8x8dct=1 / cqm=0 / deadzone=21,11 / fast_pskip=1 / chroma_qp_offset=-3 / threads=12 / lookahead_threads=2 / sliced_threads=0 / slices=2 / nr=0 / decimate=1 / interlaced=0 / bluray_compat=0 / constrained_intra=0 / bframes=3 / b_pyramid=2 / b_adapt=2 / b_bias=0 / direct=3 / weightb=1 / open_gop=0 / weightp=2 / keyint=250 / keyint_min=24 / scenecut=40 / intra_refresh=0 / rc_lookahead=70 / rc=2pass / mbtree=1 / bitrate=5804 / ratetol=1.0 / qcomp=0.62 / qpmin=1 / qpmax=69 / qpstep=4 / cplxblur=20.0 / qblur=0.5 / ip_ratio=1.40 / aq=2:1.00
Язык : English
Default : Да
Forced : Нет

Аудио
Идентификатор : 2
Формат : AC-3
Формат/Информация : Audio Coding 3
Расширение режима : CM (complete main)
Параметр Endianness формата : Big
Идентификатор кодека : A_AC3
Продолжительность : 2 ч. 59 м.
Вид битрейта : Постоянный
Битрейт : 640 Кбит/сек
Каналы : 6 каналов
Расположение каналов : Front: L C R, Side: L R, LFE
Частота : 48,0 КГц
Битовая глубина : 16 бит
Метод сжатия : С потерями
Размер потока : 823 Мбайт (10%)
Заголовок : Оригинал AC3 640 kbps
Язык : Russian
Default : Да
Forced : Нет

Меню
00:00:00.000 : :01. Первая встреча!
00:06:56.700 : :02. До весны не будить!
00:13:50.480 : :03. Раз, два, три! Ёлочка, гори!
00:21:56.160 : :04. Весна пришла!
00:28:58.620 : :05. Ловись рыбка!
00:35:54.580 : :06. Следы невиданных зверей
00:43:11.340 : :07. С волками жить...
00:50:25.120 : :08. Позвони мне, позвони!
00:57:35.920 : :09. День варенья
01:04:43.640 : :10. Праздник на льду
01:11:52.540 : :11. Первый раз в первый класс
01:19:00.140 : :12. Граница на замке
01:26:16.590 : :13. Кто не спрятался, я не виноват
01:33:15.680 : :14. Лыжню!
01:40:32.740 : :15. Будьте здоровы!
01:47:48.530 : :16. Маша + каша
01:54:56.280 : :17. Дальний родственник
02:02:13.450 : :18. Большая стирка
02:09:16.260 : :19. Репетиция оркестра
02:16:29.750 : :20. Усатый полосатый
02:23:43.360 : :21. Один дома
02:30:54.210 : :22. Дышите! Не дышите!
02:38:04.860 : :23. Подкидыш
02:45:18.480 : :24. Приятного аппетита
02:52:30.710 : :25. Фокус-покус
01. Первая встреча!
02. До весны не будить!
03. Раз, два, три! Ёлочка, гори!
04. Весна пришла!
05. Ловись рыбка!
06. Следы невиданных зверей
07. С волками жить...
08. Позвони мне, позвони!
09. День варенья
10. Праздник на льду
11. Первый раз в первый класс
12. Граница на замке
13. Кто не спрятался, я не виноват
14. Лыжню!
15. Будьте здоровы!
16. Маша + каша
17. Дальний родственник
18. Большая стирка
19. Репетиция оркестра
20. Усатый полосатый
21. Один дома
22. Дышите! Не дышите!
23. Подкидыш
24. Приятного аппетита
25. Фокус-покус



   Похожие торренты   Торрент   Размер 
В этой теме нет новых непрочитанных сообщений. Маша и Медведь (01-25) (2009-2012) BDRip 1080p

13 | 10

9.99 ГБ

В этой теме нет новых непрочитанных сообщений. Маша и Медведь [01-31] (2009-2013) BDRip 1080p от Freeisland

62 | 39

13.78 ГБ

В этой теме нет новых непрочитанных сообщений. Маша и Медведь [01-42] + Машины Сказки [01-26] (2009-2014) BDRip 1080p, WEB-DL 1080p

68 | 119

21.31 ГБ

В этой теме нет новых непрочитанных сообщений. Маша и Медведь [01-45] + Машины Сказки [01-26] (2009-2014) BDRip 1080p

331 | 162

21.9 ГБ

В этой теме нет новых непрочитанных сообщений. Маша и Медведь [01-42] + Машины Сказки [01-26] (2009-2014) BDRip 1080p

95 | 98

21.3 ГБ

В этой теме нет новых непрочитанных сообщений. Маша и Медведь [01-40] + Машины Сказки [01-26] (2009-2014) BDRip 1080p

58 | 70

20.42 ГБ

В этой теме нет новых непрочитанных сообщений. Маша и Медведь [01-43] + Машины Сказки [01-26] (2009-2014) BDRip 1080p

699 | 211

21.76 ГБ




Вы не можете начинать темы
Вы не можете отвечать на сообщения
Вы не можете редактировать свои сообщения
Вы не можете удалять свои сообщения
Вы не можете добавлять вложения

Перейти:  
Для Мосгорсуда, Роскомнадзора и рекламодателей: mosgorsud-torrent[собачка]yandex.ru
 Вход
ppkBB3cker v.2 © 2008-2014 @ PPK
[ Time : 0.029s | 14 Queries | GZIP : Off ]

Торрент трекер RUTOR.IN, Не можете зайти на rutor.org? Какой новый адрес рутор? Какое зеркало рутор? Не работает rutor.org и зеркала? Тогда наш торрент специально для вас. Rutor.in неофициальное зеркало rutor. В случае если у Вас заблокирован rutor или вдруг Вы не можете на него зайти, то Вы без труда сможете скачать бесплатно и без рекламы последние новинки кино, игр, сериалов и прочего у нас, на Rutor.in. Не нужно использовать прокси, чтобы зайти на рутор, достаточно воспользоваться нашим ресурсом. Все новые фильмы, игры, сериалы, книги и музыка за 2013 и 2014 годы через торрент бесплатно. Скачивайте фильмы в хорошем качестве, игры для пк, xbox, playstation без регистрации. У нас вы найдете новые Зарубежные сериалы и Русские сериалы 2013, 2014, 2015 годов. Оставайтесь с нами, качайте любимые фильмы, игры, сериалы, книги и музыку.