img image001 image001 image001 image001 image001 image001 image001 image001 image001 image001 image001 image001 image001 image001 image001

Planets Sun Sun Sun
Статистика раздачи
Автор: Снежана | Размер: 5.28 ГБ | Добавлен: 27 июл 2013
Раздают: 33    Качают: 6
Скачать торрент
Скачать торрент
Описание торрента

СообщениеДобавлено: 27 июл 2013 

#77
Анастасия / Anastasia
«Discover the Adventure Behind the Greatest Mystery of Our Time»

Год выпуска: 1997
Страна: США
Жанр: мультфильм, мюзикл, драма, приключения, семейный
Продолжительность: 01:34:10
Перевод: Субтитры, Профессиональный (двухголосый закадровый, "Карусель") + дубляж

Режиссер: Дон Блат / Don Bluth, Гари Голдман / Gary Goldman
В ролях: Мег Райан (Anastasia, озвучка), Джон Кьюсак (Dimitri, озвучка), Келси Грэммер (Vladimir, озвучка), Кристофер Ллойд (Rasputin, озвучка), Хэнк Азария (Bartok, озвучка), Бернадетт Питерс (Sophie, озвучка), Кирстен Данст (Young Anastasia, озвучка), Анджела Лэнсбери (The Dowager Empress Marie, озвучка), Рик Джонс (Czar Nicholas / Servant / Revolutionary Soldier / Ticket Agent, озвучка), Андреа Мартин (Phlegmenkoff / Old Woman, озвучка), Гленн Уолкер Харрис мл. (Young Dimitri, озвучка), Дебра Муни (Actress, озвучка)

Дублёры: Мария Кац (Anastasia (вокал)), Сергей Вещёв (Dimitri), Андрей Ярославцев (Vladimir), Владимир Винокур (Vladimir (вокал)), Александр Буйнов (Rasputin), Игорь Письменный (Bartok), Ирина Губанова (The Dowager Empress Marie), Вера Воронкова

Описание: Анастасия - дочка последнего русского царя Николая, погубленного зловещим Распутиным. Ей удается спастись, добраться вместе с бабушкой до переполненного вокзала и… потеряться в толпе. Проходит десять лет. Анастасия стала взрослой красавицей и теперь хочет попасть в Париж. Сможет ли царевна осуществить задуманное? Ведь Распутин уже поднялся из своей могилы…





Качество: BDRip
Формат: Matroska

Видео: AVC; 1280x540 (2.35:1); 4998 Kbps; 23,976 fps; 0,302 bpp
Аудио №1: Russian; DTS; 755 Kbps; CBR; 6 ch; 24 bit (Дублированный с Blu-ray EUR)
Аудио №2: Russian; AC3; 384 Kbps; CBR; 6 ch (Двухголосый закадровый "Карусель")
Аудио №3: English; DTS; 1509 Kbps; CBR; 6 ch; 24 bit
Аудио №4: English; AC3; 224 Kbps; CBR; 2 ch (Комментарии режиссёра Дона Блата и Гари Голдмана)
Субтитры: Russian(полные, комментарии режиссера); English


Общее
Уникальный идентификатор : 223216556957168589737523224219543267442 (0xA7EDF1F2E7A0815D8254A0E1DCC5E872)
Полное имя : H:Anastasia.1997.BluRay.720p.DTS.x264.RUS.ENG.mkv
Формат : Matroska
Размер файла : 5,28 Гбайт
Продолжительность : 1 ч. 34 м.
Общий поток : 8031 Кбит/сек
Название фильма : Anastasia (1997)
Дата кодирования : UTC 2011-03-22 23:33:52
Программа кодирования : mkvmerge v4.4.0 ('Die Wiederkehr') сборка от Oct 31 2010 21:52:48
Библиотека кодирования : libebml v1.0.0 + libmatroska v1.0.0

Видео
Идентификатор : 1
Формат : AVC
Формат/Информация : Advanced Video Codec
Профиль формата : High@L4.1
Параметр CABAC формата : Да
Параметр ReFrames формата : 8 кадры
Идентификатор кодека : V_MPEG4/ISO/AVC
Продолжительность : 1 ч. 34 м.
Битрейт : 5141 Кбит/сек
Ширина : 1280 пикс.
Высота : 540 пикс.
Соотношение сторон : 2,35:1
Частота кадров : 23,976 кадр/сек
Цветовое пространство : YUV
Подвыборка цветности : 4:2:0
Битовая глубина : 8 бит
Тип развёртки : Прогрессивная
Бит/(Пиксели*Кадры) : 0.310
Размер потока : 3,29 Гбайт (62%)
Заголовок : Anastasia 1997 BluRay 720p x264 DTS - MySiLU
Библиотека кодирования : x264 core 114 r1913 5fd3dce
Настройки программы : cabac=1 / ref=8 / deblock=1:-2:-2 / analyse=0x3:0x133 / me=umh / subme=9 / psy=1 / psy_rd=1.20:0.20 / mixed_ref=1 / me_range=16 / chroma_me=1 / trellis=2 / 8x8dct=1 / cqm=0 / deadzone=21,11 / fast_pskip=1 / chroma_qp_offset=-3 / threads=12 / sliced_threads=0 / nr=0 / decimate=0 / interlaced=0 / constrained_intra=0 / bframes=3 / b_pyramid=2 / b_adapt=2 / b_bias=0 / direct=3 / weightb=1 / open_gop=0 / weightp=2 / keyint=250 / keyint_min=2 / scenecut=40 / intra_refresh=0 / rc_lookahead=60 / rc=2pass / mbtree=1 / bitrate=5141 / ratetol=1.0 / qcomp=0.60 / qpmin=10 / qpmax=51 / qpstep=4 / cplxblur=20.0 / qblur=0.5 / vbv_maxrate=38000 / vbv_bufsize=38000 / nal_hrd=none / ip_ratio=1.40 / aq=1:1.00
Язык : English

Аудио #1
Идентификатор : 2
Формат : DTS
Формат/Информация : Digital Theater Systems
Идентификатор кодека : A_DTS
Продолжительность : 1 ч. 34 м.
Вид битрейта : Постоянный
Битрейт : 755 Кбит/сек
Канал(ы) : 6 канала(ов)
Расположение каналов : Front: L C R, Side: L R, LFE
Частота : 48,0 КГц
Битовая глубина : 24 бит
Метод сжатия : С потерями
Размер потока : 508 Мбайт (9%)
Заголовок : Dub DTS 5.1 @ 768 kbps
Язык : Russian

Аудио #2
Идентификатор : 3
Формат : AC-3
Формат/Информация : Audio Coding 3
Расширение режима : CM (complete main)
Идентификатор кодека : A_AC3
Продолжительность : 1 ч. 34 м.
Вид битрейта : Постоянный
Битрейт : 384 Кбит/сек
Канал(ы) : 6 канала(ов)
Расположение каналов : Front: L C R, Side: L R, LFE
Частота : 48,0 КГц
Битовая глубина : 16 бит
Метод сжатия : С потерями
Размер потока : 259 Мбайт (5%)
Заголовок : DVO "Karusel" AC3 5.1 @ 384 kbps
Язык : Russian

Аудио #3
Идентификатор : 4
Формат : DTS
Формат/Информация : Digital Theater Systems
Идентификатор кодека : A_DTS
Продолжительность : 1 ч. 34 м.
Вид битрейта : Постоянный
Битрейт : 1510 Кбит/сек
Канал(ы) : 6 канала(ов)
Расположение каналов : Front: L C R, Side: L R, LFE
Частота : 48,0 КГц
Битовая глубина : 24 бит
Метод сжатия : С потерями
Размер потока : 1017 Мбайт (19%)
Заголовок : DTS 5.1 @ 1509 kbps
Язык : English

Аудио #4
Идентификатор : 5
Формат : AC-3
Формат/Информация : Audio Coding 3
Расширение режима : CM (complete main)
Идентификатор кодека : A_AC3
Продолжительность : 1 ч. 34 м.
Вид битрейта : Постоянный
Битрейт : 224 Кбит/сек
Канал(ы) : 2 канала(ов)
Расположение каналов : Front: L R
Частота : 48,0 КГц
Битовая глубина : 16 бит
Метод сжатия : С потерями
Размер потока : 151 Мбайт (3%)
Заголовок : Comment
Язык : English

Текст #1
Идентификатор : 6
Формат : UTF-8
Идентификатор кодека : S_TEXT/UTF8
Идентификатор кодека/Информация : UTF-8 Plain Text
Заголовок : full
Язык : Russian

Текст #2
Идентификатор : 7
Формат : UTF-8
Идентификатор кодека : S_TEXT/UTF8
Идентификатор кодека/Информация : UTF-8 Plain Text
Заголовок : comment
Язык : Russian

Текст #3
Идентификатор : 8
Формат : UTF-8
Идентификатор кодека : S_TEXT/UTF8
Идентификатор кодека/Информация : UTF-8 Plain Text
Язык : English

Меню
00:00:00.000 : en:00:00:00.000
00:02:23.268 : en:00:02:23.268
00:03:02.808 : en:00:03:02.808
00:06:41.026 : en:00:06:41.026
00:10:10.485 : en:00:10:10.485
00:12:40.051 : en:00:12:40.051
00:15:57.790 : en:00:15:57.790
00:16:45.755 : en:00:16:45.755
00:18:07.169 : en:00:18:07.169
00:20:44.660 : en:00:20:44.660
00:25:41.874 : en:00:25:41.874
00:27:06.041 : en:00:27:06.041
00:29:10.457 : en:00:29:10.457
00:31:26.218 : en:00:31:26.218
00:35:13.611 : en:00:35:13.611
00:38:08.369 : en:00:38:08.369
00:40:12.201 : en:00:40:12.201
00:42:38.347 : en:00:42:38.347
00:45:14.045 : en:00:45:14.045
00:46:20.778 : en:00:46:20.778
00:49:32.303 : en:00:49:32.303
00:52:52.586 : en:00:52:52.586
00:54:08.662 : en:00:54:08.662
00:58:29.631 : en:00:58:29.631
01:01:50.790 : en:01:01:50.790
01:04:59.020 : en:01:04:59.020
01:08:53.796 : en:01:08:53.796
01:11:09.849 : en:01:11:09.849
01:12:00.483 : en:01:12:00.483
01:13:05.381 : en:01:13:05.381
01:14:20.790 : en:01:14:20.790
01:17:04.578 : en:01:17:04.578
01:19:25.052 : en:01:19:25.052
01:22:17.683 : en:01:22:17.683
01:25:10.522 : en:01:25:10.522
01:26:52.416 : en:01:26:52.416



   Похожие торренты   Торрент   Размер 
В этой теме нет новых непрочитанных сообщений. Анастасия / Anastasia (1997) BDRip 720p

11 | 5

7.02 ГБ

В этой теме нет новых непрочитанных сообщений. Анастасия / Anastasia (1997) BDRip 720p от Freeisland

3 | 3

4.37 ГБ

В этой теме нет новых непрочитанных сообщений. Анастасия / Anastasia (1997) BDRip [720p] от HQ-ViDEO

36 | 4

4.37 ГБ

В этой теме нет новых непрочитанных сообщений. Анастасия / Anastasia (1997) BDRip-AVC | iPad

129 | 6

1.52 ГБ

В этой теме нет новых непрочитанных сообщений. Анастасия / Anastasia (1997) BDRip от HQ-ViDEO

228 | 37

1.71 ГБ

В этой теме нет новых непрочитанных сообщений. Анастасия / Anastasia (1997) BDRip от HQCLUB

1233 | 38

1.45 ГБ

В этой теме нет новых непрочитанных сообщений. Анастасия / Anastasia (1997) BDRip-AVC от NovaLan

17 | 7

2.09 ГБ




Вы не можете начинать темы
Вы не можете отвечать на сообщения
Вы не можете редактировать свои сообщения
Вы не можете удалять свои сообщения
Вы не можете добавлять вложения

Перейти:  
Для Мосгорсуда, Роскомнадзора и рекламодателей: mosgorsud-torrent[собачка]yandex.ru
 Вход
ppkBB3cker v.2 © 2008-2014 @ PPK
[ Time : 0.045s | 14 Queries | GZIP : Off ]

Торрент трекер RUTOR.IN, Не можете зайти на rutor.org? Какой новый адрес рутор? Какое зеркало рутор? Не работает rutor.org и зеркала? Тогда наш торрент специально для вас. Rutor.in неофициальное зеркало rutor. В случае если у Вас заблокирован rutor или вдруг Вы не можете на него зайти, то Вы без труда сможете скачать бесплатно и без рекламы последние новинки кино, игр, сериалов и прочего у нас, на Rutor.in. Не нужно использовать прокси, чтобы зайти на рутор, достаточно воспользоваться нашим ресурсом. Все новые фильмы, игры, сериалы, книги и музыка за 2013 и 2014 годы через торрент бесплатно. Скачивайте фильмы в хорошем качестве, игры для пк, xbox, playstation без регистрации. У нас вы найдете новые Зарубежные сериалы и Русские сериалы 2013, 2014, 2015 годов. Оставайтесь с нами, качайте любимые фильмы, игры, сериалы, книги и музыку.