img image001 image001 image001 image001 image001 image001 image001 image001 image001 image001 image001 image001 image001 image001 image001

Planets Sun Sun Sun
Статистика раздачи
Автор: Снежана | Размер: 2.19 ГБ | Добавлен: 27 июл 2013
Раздают: 27    Качают: 7
Скачать торрент
Скачать торрент
Описание торрента

СообщениеДобавлено: 27 июл 2013 

#77


Информация о фильме
Название: Эрнест и Селестина: Приключения мышки и медведя
Оригинальное название: Ernest et Celestine
Год выхода: 2012
Жанр: мультфильм
Режиссер: Стефани Обье, Венсан Патар, Бенжамин Реннер
В ролях: Ламбер Вильсон, Полин Бруннер, Энн-Мари Луп

О фильме: Большая дружба начинается с малого… Она — маленькая мышка, он — огромный медведь. Она — ребенок, он — взрослый. Она мечтает быть художницей, хотя по правилам своего мира должна стать дантистом, он — музыкант и поэт, ведущий бездумную жизнь и никогда не имеющий куска хлеба на завтра. Они живут в разных мирах: для обитателей мышиного царства нет ничего более дикого, чем подружиться с «большим плохим медведем», да и его соседи вряд ли поймут, зачем водиться с мышкой. Но дружба и родство душ сродни настоящему волшебству. И какое этой парочке дело до условностей, разницы в размере, исторических предрассудков и культурных барьеров?
Выпущено: Франция / La Parti Productions, Les Armateurs, Maybe Movies
Продолжительность: 01:19:20
Озвучивание: Дублированное [лицензия]
Качество: BDRip [720p]
Видео: 1280x720, 3 501 Кбит/сек, 24,000 кадр/сек, AVC, x264, 16:9, 0.158 Бит/[Пиксели*Кадры], 2pass
Аудио: AC-3, 448 Кбит/сек, 6 канала(ов), 48,0 КГц
Размер: 2,19 ГБ

Бюджет Фильма: -
Кассовые сборы: -

Релиз от:





Format : Matroska
Format version : Version 4 / Version 2
File size : 2.19 GiB
Duration : 1h 19mn
Overall bit rate : 3 950 Kbps
Encoded date : UTC 2013-07-08 17:50:51
Writing application : mkvmerge v6.2.0 ('Promised Land') built on Apr 28 2013 12:22:01
Writing library : libebml v1.3.0 + libmatroska v1.4.0

Video
ID : 2
Format : AVC
Format/Info : Advanced Video Codec
Format profile : High@L3.1
Format settings, CABAC : Yes
Format settings, ReFrames : 4 frames
Codec ID : V_MPEG4/ISO/AVC
Duration : 1h 19mn
Bit rate : 3 501 Kbps
Width : 1 280 pixels
Height : 720 pixels
Display aspect ratio : 16:9
Frame rate mode : Constant
Frame rate : 24.000 fps
Color space : YUV
Chroma subsampling : 4:2:0
Bit depth : 8 bits
Scan type : Progressive
Bits/(Pixel*Frame) : 0.158
Stream size : 1.90 GiB (87%)
Writing library : x264 core 133 r2334 a3ac64b
Encoding settings : cabac=1 / ref=3 / deblock=1:0:0 / analyse=0x3:0x113 / me=hex / subme=7 / psy=1 / psy_rd=1.00:0.00 / mixed_ref=1 / me_range=16 / chroma_me=1 / trellis=1 / 8x8dct=1 / cqm=0 / deadzone=21,11 / fast_pskip=1 / chroma_qp_offset=-2 / threads=6 / lookahead_threads=1 / sliced_threads=0 / nr=0 / decimate=1 / interlaced=0 / bluray_compat=0 / constrained_intra=0 / bframes=3 / b_pyramid=2 / b_adapt=1 / b_bias=0 / direct=1 / weightb=1 / open_gop=0 / weightp=2 / keyint=240 / keyint_min=24 / scenecut=40 / intra_refresh=0 / rc_lookahead=40 / rc=2pass / mbtree=1 / bitrate=3501 / ratetol=1.0 / qcomp=0.60 / qpmin=0 / qpmax=69 / qpstep=4 / cplxblur=20.0 / qblur=0.5 / ip_ratio=1.40 / aq=1:1.00
Language : English
Default : Yes
Forced : No

Audio
ID : 1
Format : AC-3
Format/Info : Audio Coding 3
Mode extension : CM (complete main)
Format settings, Endianness : Big
Codec ID : A_AC3
Duration : 1h 19mn
Bit rate mode : Constant
Bit rate : 448 Kbps
Channel(s) : 6 channels
Channel positions : Front: L C R, Side: L R, LFE
Sampling rate : 48.0 KHz
Bit depth : 16 bits
Compression mode : Lossy
Stream size : 254 MiB (11%)
Default : Yes
Forced : No



   Похожие торренты   Торрент   Размер 
В этой теме нет новых непрочитанных сообщений. Эрнест и Селестина: Приключения мышки и медведя / Ernest et Celestine (2012) BDRip 1080p от R.G.GoldenShara

20 | 8

4.37 ГБ

В этой теме нет новых непрочитанных сообщений. Эрнест и Селестина: Приключения мышки и медведя / Ernest et Celestine (2012) BDRip-AVC | Лицензия

162 | 51

1.42 ГБ

В этой теме нет новых непрочитанных сообщений. Эрнест и Селестина: Приключения мышки и медведя / Ernest et Célestine (2012) BDRip 1080p

230 | 14

2.19 ГБ

В этой теме нет новых непрочитанных сообщений. Эрнест и Селестина: Приключения мышки и медведя / Ernest et Célestine (2012) BDRip 720p от Leonardo and Scarabey | Лицензия

129 | 4

1.41 ГБ

В этой теме нет новых непрочитанных сообщений. Эрнест и Селестина: Приключения мышки и медведя / Ernest et Celestine (2012) HDRip | Лицензия

136 | 8

1.37 ГБ

В этой теме нет новых непрочитанных сообщений. Эрнест и Селестина: Приключения мышки и медведя / Ernest et Celestine (2012) HDRip от Files-x

30 | 5

716.3 МБ

В этой теме нет новых непрочитанных сообщений. Эрнест и Селестина: Приключения мышки и медведя / Ernest et Celestine (2012) DVD9 | Лицензия

15 | 4

5.13 ГБ




Вы не можете начинать темы
Вы не можете отвечать на сообщения
Вы не можете редактировать свои сообщения
Вы не можете удалять свои сообщения
Вы не можете добавлять вложения

Перейти:  
Для Мосгорсуда, Роскомнадзора и рекламодателей: mosgorsud-torrent[собачка]yandex.ru
 Вход
ppkBB3cker v.2 © 2008-2014 @ PPK
[ Time : 0.065s | 14 Queries | GZIP : Off ]

Торрент трекер RUTOR.IN, Не можете зайти на rutor.org? Какой новый адрес рутор? Какое зеркало рутор? Не работает rutor.org и зеркала? Тогда наш торрент специально для вас. Rutor.in неофициальное зеркало rutor. В случае если у Вас заблокирован rutor или вдруг Вы не можете на него зайти, то Вы без труда сможете скачать бесплатно и без рекламы последние новинки кино, игр, сериалов и прочего у нас, на Rutor.in. Не нужно использовать прокси, чтобы зайти на рутор, достаточно воспользоваться нашим ресурсом. Все новые фильмы, игры, сериалы, книги и музыка за 2013 и 2014 годы через торрент бесплатно. Скачивайте фильмы в хорошем качестве, игры для пк, xbox, playstation без регистрации. У нас вы найдете новые Зарубежные сериалы и Русские сериалы 2013, 2014, 2015 годов. Оставайтесь с нами, качайте любимые фильмы, игры, сериалы, книги и музыку.