img image001 image001 image001 image001 image001 image001 image001 image001 image001 image001 image001 image001 image001 image001 image001

Planets Sun Sun Sun
Статистика раздачи
Автор: Снежана | Размер: 14.28 ГБ | Добавлен: 27 июл 2013
Раздают: 9    Качают: 10
Скачать торрент
Скачать торрент
Описание торрента

СообщениеДобавлено: 27 июл 2013 

Атлантида 2: Возвращение Майло
Atlantis: Milo's Return
(2003)
BDRemux 1080p от FREEISLAND




Год выпуска: 2003
Страна: США
Жанр: мультфильм, комедия, приключения, семейный
Продолжительность: 1 ч. 20 м. 32 с.
Перевод 1: Дублированный - [R5]
Перевод 2: Многоголосый, закадровый
Оригинальная дорожка: есть

Режиссер: Виктор Кук, Тоби Шелтон, Тэд Стоунс
Продюссер: Тэд Стоунс
Сценарий: Томас Харт, Генри Гилрой, Кевин Хоуппс
Композитор: Дон Харпер
Студия: Walt Disney Pictures

Премьера в мире: 23 апреля 2003

- Нет возрастных ограничений


Роли озвучивали:
Джеймс Арнольд Тейлор (James Arnold Taylor) - Milo, озвучка, Кри Саммер (Cree Summer) - Kida, озвучка, Джон Махони (John Mahoney) - Whitmore, озвучка, Жаклин Обрадорс (Jacqueline Obradors) - Audrey / Nurse, озвучка, Дон Новелло (Don Novello) - Vinny, озвучка, Кори Бертон (Corey Burton) - Mole, озвучка, Фил Моррис (Phil Morris) - Sweet, озвучка, Флоренс Стэнли (Florence Stanley) - Packard, озвучка, Фрэнк Уэлкер (Frank Welker) - Obby / Mantell, озвучка, Стив Барр (Steven Barr (в титрах: Steve Barr)) - Cookie, озвучка, Клэнси Браун (Clancy Brown) - Volgud, озвучка, Жан Джилпин (Jean Gilpin) - Inger, озвучка, Кари Руне Ларсен (Kai Rune Larsen) - Seaman / Gunnar, Билл Фагербакки (Bill Fagerbakke) - Sven, озвучка, Томас Ф. Уилсон (Thomas F. Wilson (в титрах: Tom Wilson)) - Carnaby, озвучка, Флойд «Ред Кроу» Уэстермен (Floyd «Red Crow» Westerman) - Chakashi, озвучка, Джефф Беннетт (Jeff Bennett) - Sam McKeane, озвучка, Уильям Морган Шеппард (William Morgan Sheppard) - Erik Hellstrom, озвучка

Описание:
Мийло, Кида и команда смелых исследователей Атлантиды возвращаются в новых приключениях, полных ожидания и действия. В течение первой экспедиции Майло и Кида открыли подводное царство, а так же спасли его и всех его обитателей. Теперь опасность подкралась с поверхности воды и отважным героям придется покинуть Атлантиду...

Доп. информация:
Русская дорожка MVO получена переналожением голосов с центра DVD на на центр декодированного DTS-HDMA.
Качество дорожки с дубляжом оставляет желать лучшего, посему многоголоска слушается на много приятнее...

Качество: BDRemux 1080p
Контейнер: MKV
Видео: AVC at 20996 kbps, 1920 x 1080 (1.778) at 23.976 fps
Аудио №1 (RUS): AC-3 at 192 kbps, 2 каналов, 48,0 КГц DUB [R5]
Аудио №1 (RUS): DTS at 1509 kbps, 6 каналов, 48,0 КГц MVO
Аудио №1 (ENG): DTS-HDMA 2934 kbps 6 каналов, 48,0 КГц, 24-bit (DTS Core: 5.1/ 48,0 КГц/ 1509 kbps/ 24-bit) Original
Субтитры: Английские полные (SRT/UTF-8)
Навигация по главам: есть

Общее
Уникальный идентификатор : 177576437241946437767021816212919783287 (0x8597FA50752987D98B4079A50B298F77)
Полное имя : Атлантида 2. Возвращение Майло [Atlantis II. Milo's Return] (2003) BDRemux by_F.HD.mkv
Формат : Matroska
Версия формата : Version 4 / Version 2
Размер файла : 14,3 Гбайт
Продолжительность : 1 ч. 20 м.
Режим общего битрейта : Переменный
Общий поток : 25,4 Мбит/сек
Название фильма : релиз от FREEISLAND.ORG
Дата кодирования : UTC 2013-07-10 15:50:19
Программа кодирования : mkvmerge v6.2.0 ('Promised Land') built on Apr 28 2013 12:22:01
Библиотека кодирования : libebml v1.3.0 + libmatroska v1.4.0

Видео
Идентификатор : 1
Формат : AVC
Формат/Информация : Advanced Video Codec
Профиль формата : High@L4.1
Параметр CABAC формата : Да
Параметр ReFrames формата : 4 кадра
Параметр GOP формата : M=3, N=12
Идентификатор кодека : V_MPEG4/ISO/AVC
Продолжительность : 1 ч. 20 м.
Вид битрейта : Переменный
Битрейт : 21,6 Мбит/сек
Максимальный битрейт : 28,0 Мбит/сек
Ширина : 1920 пикселей
Высота : 1080 пикселей
Соотношение сторон : 16:9
Частота кадров : 23,976 кадра/сек
Цветовое пространство : YUV
Субдискретизация насыщенности : 4:2:0
Битовая глубина : 8 бит
Тип развёртки : Прогрессивная
Бит/(Пиксели*Кадры) : 0.434
Размер потока : 12,2 Гбайт (85%)
Default : Да
Forced : Нет

Аудио #1
Идентификатор : 2
Формат : AC-3
Формат/Информация : Audio Coding 3
Расширение режима : CM (complete main)
Идентификатор кодека : A_AC3
Продолжительность : 1 ч. 20 м.
Вид битрейта : Постоянный
Битрейт : 192 Кбит/сек
Каналы : 2 канала
Расположение каналов : Front: L R
Частота : 48,0 КГц
Битовая глубина : 16 бит
Метод сжатия : С потерями
Размер потока : 111 Мбайт (1%)
Заголовок : Dub [R5]
Язык : Russian
Default : Да
Forced : Нет

Аудио #2
Идентификатор : 3
Формат : DTS
Формат/Информация : Digital Theater Systems
Идентификатор кодека : A_DTS
Продолжительность : 1 ч. 20 м.
Вид битрейта : Постоянный
Битрейт : 1510 Кбит/сек
Каналы : 6 каналов
Расположение каналов : Front: L C R, Side: L R, LFE
Частота : 48,0 КГц
Битовая глубина : 24 бит
Метод сжатия : С потерями
Размер потока : 870 Мбайт (6%)
Заголовок : MVO
Язык : Russian
Default : Нет
Forced : Нет

Аудио #3
Идентификатор : 4
Формат : DTS
Формат/Информация : Digital Theater Systems
Профиль формата : MA / Core
Идентификатор кодека : A_DTS
Продолжительность : 1 ч. 20 м.
Вид битрейта : Переменный
Битрейт : 1576 Кбит/сек / 1510 Кбит/сек
Каналы : 6 каналов
Расположение каналов : Front: L C R, Side: L R, LFE
Частота : 48,0 КГц
Битовая глубина : 24 бит
Метод сжатия : Без потерь / Lossy
Язык : English
Default : Нет
Forced : Нет

Текст
Идентификатор : 5
Формат : UTF-8
Идентификатор кодека : S_TEXT/UTF8
Идентификатор кодека/Информация : UTF-8 Plain Text
Заголовок : Full
Язык : English
Default : Нет
Forced : Нет

Меню
00:00:00.000 : en:01. Opening Titles/Rebuilding Atlantis
00:06:51.619 : en:02. Meeting Kraken
00:14:13.185 : en:03. Learning About Volgud
00:20:53.085 : en:04. Saving Audrey
00:27:33.193 : en:05. Defeating the Kraken
00:34:45.833 : en:06. Carnaby's Ranch
00:40:59.665 : en:07. Returning the Pot
00:52:13.004 : en:08. Hellstrom's Revenge
01:00:24.078 : en:09. Battle for the Spear
01:10:41.946 : en:10. The Heart of Atlantis/End Credits










Релиз от:



   Похожие торренты   Торрент   Размер 
В этой теме нет новых непрочитанных сообщений. Атлантида 2: Возвращение Майло / Atlantis: Milo's Return (2003) BDRip 1080р от Freeisland

86 | 22

4.37 ГБ

В этой теме нет новых непрочитанных сообщений. Атлантида 2: Возвращение Майло / Atlantis II: Milo's Return (2003) DVDRip-AVC

5 | 4

615.03 МБ

В этой теме нет новых непрочитанных сообщений. Атлантида 2: Возвращение Майло / Atlantis: Milo's Return (2003) BDRip-AVC | iPad | D

189 | 18

1.39 ГБ

В этой теме нет новых непрочитанных сообщений. Атлантида: Затерянный мир / Atlantis: The Lost Empire (2001) BDRemux от FREEISLAND

4 | 2

19.49 ГБ

В этой теме нет новых непрочитанных сообщений. Майло / Bad Milo (2013) BDRip 1080p от CINEMANIA | L1

22 | 5

7.11 ГБ

В этой теме нет новых непрочитанных сообщений. Майло / Bad Milo (2013) BDRip 1080p от CINEMANIA | P | Лицензия

125 | 48

7.22 ГБ

В этой теме нет новых непрочитанных сообщений. Атлантида: Затерянный мир / Atlantis: The Lost Empire (2001) BDRip 1080р от Freeisland

107 | 20

6.06 ГБ




Вы не можете начинать темы
Вы не можете отвечать на сообщения
Вы не можете редактировать свои сообщения
Вы не можете удалять свои сообщения
Вы не можете добавлять вложения

Перейти:  
Для Мосгорсуда, Роскомнадзора и рекламодателей: mosgorsud-torrent[собачка]yandex.ru
 Вход
ppkBB3cker v.2 © 2008-2014 @ PPK
[ Time : 4.009s | 15 Queries | GZIP : Off ]

Торрент трекер RUTOR.IN, Не можете зайти на rutor.org? Какой новый адрес рутор? Какое зеркало рутор? Не работает rutor.org и зеркала? Тогда наш торрент специально для вас. Rutor.in неофициальное зеркало rutor. В случае если у Вас заблокирован rutor или вдруг Вы не можете на него зайти, то Вы без труда сможете скачать бесплатно и без рекламы последние новинки кино, игр, сериалов и прочего у нас, на Rutor.in. Не нужно использовать прокси, чтобы зайти на рутор, достаточно воспользоваться нашим ресурсом. Все новые фильмы, игры, сериалы, книги и музыка за 2013 и 2014 годы через торрент бесплатно. Скачивайте фильмы в хорошем качестве, игры для пк, xbox, playstation без регистрации. У нас вы найдете новые Зарубежные сериалы и Русские сериалы 2013, 2014, 2015 годов. Оставайтесь с нами, качайте любимые фильмы, игры, сериалы, книги и музыку.