img image001 image001 image001 image001 image001 image001 image001 image001 image001 image001 image001 image001 image001 image001 image001

Planets Sun Sun Sun
Статистика раздачи
Автор: Снежана | Размер: 307.72 МБ | Добавлен: 27 июл 2013
Раздают: 31    Качают: 3
Скачать торрент
Скачать торрент
Описание торрента

СообщениеДобавлено: 27 июл 2013 

#77

Информация о фильме
Название: Гравити Фоллс
Оригинальное название: Gravity Falls
Год выхода: 2013
Жанр: Приключения, мистика
Режиссер: Алекс Хирш / Alex Hirsch
В ролях: Джейсон Риттер, Кристен Шааль, Алекс Хирш, Линда Карделлини

О фильме:
Мультсериал повествует о приключениях двенадцатилетних близнецов (брата и сестры) Диппера и Мейбл, чьи летние планы рушатся, когда родители отправляют их в далёкий городок Грэвити Фоллс, штат Орегон, к Дяде Стэну. В городе творятся странные вещи, в которых им предстоит разобраться.
Страна: США
Продолжительность: 00:22:17
Перевод: Любительский (двухголосый закадровый)
Перевод текста: Feydraut, ShuRiik.
Озвучивали: Feydraut, kostochka

Файл
Кодек: H264
Качество: HDTVRip 720p
Видео: 1280x720 23.976fps 1 700 Kbps
Звук: Dolby AC3 48000Hz 2ch 192 Kbps
Отчет MediaInfo:
General
Unique ID : 225781570904363659069186729784712209579 (0xA9DBF2E67E5061D59887AAB33595A4AB)
Complete name : H:TorrentsСериалыGravity Falls s01 e18gravity.falls.s01e18.land.before.swine.720p.hdtv.mkv
Format : Matroska
Format version : Version 4 / Version 2
File size : 308 MiB
Duration : 22mn 17s
Overall bit rate : 1 930 Kbps
Encoded date : UTC 2013-07-15 10:04:09
Writing application : mkvmerge v6.2.0 ('Promised Land') built on Apr 28 2013 12:22:01
Writing library : libebml v1.3.0 + libmatroska v1.4.0

Video
ID : 2
Format : AVC
Format/Info : Advanced Video Codec
Format profile : High@L4.1
Format settings, CABAC : Yes
Format settings, ReFrames : 9 frames
Codec ID : V_MPEG4/ISO/AVC
Duration : 22mn 17s
Bit rate : 1 700 Kbps
Width : 1 280 pixels
Height : 720 pixels
Display aspect ratio : 16:9
Frame rate mode : Constant
Frame rate : 23.976 fps
Color space : YUV
Chroma subsampling : 4:2:0
Bit depth : 8 bits
Scan type : Progressive
Bits/(Pixel*Frame) : 0.077
Stream size : 271 MiB (88%)
Writing library : x264 core 133 r2334 a3ac64b
Encoding settings : cabac=1 / ref=9 / deblock=1:1:1 / analyse=0x3:0x113 / me=umh / subme=8 / psy=1 / psy_rd=0.40:0.00 / mixed_ref=1 / me_range=16 / chroma_me=1 / trellis=1 / 8x8dct=1 / cqm=0 / deadzone=21,11 / fast_pskip=1 / chroma_qp_offset=-2 / threads=6 / lookahead_threads=1 / sliced_threads=0 / nr=0 / decimate=1 / interlaced=0 / bluray_compat=0 / constrained_intra=0 / bframes=5 / b_pyramid=2 / b_adapt=2 / b_bias=0 / direct=3 / weightb=1 / open_gop=0 / weightp=2 / keyint=240 / keyint_min=23 / scenecut=40 / intra_refresh=0 / rc_lookahead=50 / rc=crf / mbtree=1 / crf=19.0 / qcomp=0.60 / qpmin=0 / qpmax=69 / qpstep=4 / vbv_maxrate=62500 / vbv_bufsize=78125 / crf_max=0.0 / nal_hrd=none / ip_ratio=1.40 / aq=1:0.60
Default : Yes
Forced : No

Audio
ID : 1
Format : AC-3
Format/Info : Audio Coding 3
Mode extension : CM (complete main)
Format settings, Endianness : Big
Codec ID : A_AC3
Duration : 22mn 17s
Bit rate mode : Constant
Bit rate : 192 Kbps
Channel(s) : 2 channels
Channel positions : Front: L R
Sampling rate : 48.0 KHz
Bit depth : 16 bits
Compression mode : Lossy
Stream size : 30.6 MiB (10%)
Default : Yes
Forced : No


SAMPLE





   Похожие торренты   Торрент   Размер 
В этой теме нет новых непрочитанных сообщений. Грэвити Фоллс / Гравити Фолз / Gravity Falls [S01] (2012) WEB-DL 720p | L1

559 | 52

11.96 ГБ

В этой теме нет новых непрочитанных сообщений. Грэвити Фоллс / Гравити Фолз / Gravity Falls [S02] (2014-2015) WEB-DL 720р | L1

1123 | 170

6.47 ГБ

В этой теме нет новых непрочитанных сообщений. Гравити Фолз / Gravity Falls [S01] (2013) WEB-DL 720p | D

1113 | 222

12.79 ГБ

В этой теме нет новых непрочитанных сообщений. Грэвити Фоллс / Gravity Falls [01-07 из 09] (2012) WEB-DL 720p

3 | 2

4.08 ГБ

В этой теме нет новых непрочитанных сообщений. Гравити Фолз / Gravity Falls [02x01-08 из 20] (2014) WEB-DL 720p | L

52 | 7

5.76 ГБ

В этой теме нет новых непрочитанных сообщений. Грэвити Фоллс / Gravity Falls [S01] (2013) WEB-DLRip от Deadmauvlad | D

1342 | 459

6.27 ГБ

В этой теме нет новых непрочитанных сообщений. Гравити Фолз / Gravity Falls [S01] (2012-2013) WEB-DLRip 1080p | D

240 | 61

17.66 ГБ




Вы не можете начинать темы
Вы не можете отвечать на сообщения
Вы не можете редактировать свои сообщения
Вы не можете удалять свои сообщения
Вы не можете добавлять вложения

Перейти:  
Для Мосгорсуда, Роскомнадзора и рекламодателей: mosgorsud-torrent[собачка]yandex.ru
 Вход
ppkBB3cker v.2 © 2008-2014 @ PPK
[ Time : 0.026s | 15 Queries | GZIP : Off ]

cron