img image001 image001 image001 image001 image001 image001 image001 image001 image001 image001 image001 image001 image001 image001 image001

Planets Sun Sun Sun
Статистика раздачи
Автор: Снежана | Размер: 6.06 ГБ | Добавлен: 27 июл 2013
Раздают: 107    Качают: 20
Скачать торрент
Скачать торрент
Описание торрента

СообщениеДобавлено: 27 июл 2013 

Атлантида: Затерянный мир / Atlantis: The Lost Empire



«'...in a single day and night of misfortune, the island of Atlantis disappeared into the depths of the sea.' -- Plato, 360 B.C.»

Год выпуска: 2001
Страны: США
Жанр: мультфильм, фантастика, приключения, семейный
Продолжительность: 01:35:52
Перевод: Профессиональный (дублированный)
Cубтитры: Russian (UTF-8), Russian (UTF-8),

Режиссер: Гари Труздейл, Кирк Уайз
Сценарий: Дэвид Рейнольдс, Джосс Уидон, Тэб Мёрфи, ...
Продюсер: Дон Хан, Кендра Халланд
Композитор : Джеймс Ньютон Ховард
Художник: Мэтт Кодд, Рикардо Ф. Делгадо, Джим Мартин, ...
Монтаж: Эллен Кенеши

Описание: Атлантида; Мечтою найти легендарный затонувший в пучинах океана остров грезили многие смельчаки. Но только юному картографу Майло Тэтчу повезло: в 1914 году в его руки попал таинственный дневник, указывающий путь к Затерянной империи. И вот уже самая могучая подводная лодка в мире под командованием неустрашимого капитана Рурка выходит в открытый океан.Майло и его спутников ждет множество незабываемых приключений, превосходящих все похождения капитана Немо: схватка с морским чудовищем, древние загадки, буйство стихий, мистические силы и даже встреча с цивилизацией атлантов! И это лишь малая толика того, что ждет героев на их пути к тайнам великой Атлантиды.

Бюджет: $120 000 000
Сборы в США: $84 056 472
Сборы в мире: + $101 997 253 = $186 053 725
Зрители: 15.6 млн 2.49 млн 1.41 млн
Премьера (мир): 3 июня 2001, ...
Премьера (РФ): 20 декабря 2001, «Каскад»
Релиз на DVD: 26 апреля 2011, «Уолт Дисней Компани СНГ», ...
Рейтинг MPAA:




Качество: BDRip 1080р
Формат: MKV
Видео кодек: AVC
Аудио кодек: AC3
Видео: 1920x816 (2.35:1), 23.976 fps, AVC, 7 462 Kbps
Аудио #1: AC3, 384 Kbps, 48.0 KHz, 6 ch Дубляж [R5]
Аудио #2: AC3, 384 Kbps, 48.0 KHz, 6 ch MVO [С.Р.И]
Аудио #3: AC3, 448 Kbps, 48.0 KHz, 6 ch AVO С.Визгунов
Аудио #4: AC3, 384 Kbps, 48.0 KHz, 6 ch English

Лог:
- x264 [info]: frame I:1169 Avg QP:11.30 size:243188
- x264 [info]: frame P:40813 Avg QP:13.93 size: 74488
- x264 [info]: frame B:95726 Avg QP:15.15 size: 21272

General
Complete name : Atlantida.2001.BDRip.1080p.mkv
Format : Matroska
File size : 6.06 GiB
Duration : 1h 35mn
Overall bit rate : 9 056 Kbps
Movie name : релиз от FREEISLAND.ORG
Encoded date : UTC 2013-07-16 11:05:00
Writing application : mkvmerge v6.1.0 ('Old Devil') built on Mar 2 2013 14:32:37
Writing library : libebml v1.3.0 + libmatroska v1.4.0

Video
ID : 1
Format : AVC
Format/Info : Advanced Video Codec
Format profile : High@L4.1
Format settings, CABAC : Yes
Format settings, ReFrames : 4 frames
Muxing mode : Container profile=Unknown@4.1
Codec ID : V_MPEG4/ISO/AVC
Duration : 1h 35mn
Bit rate : 7 462 Kbps
Width : 1 920 pixels
Height : 816 pixels
Display aspect ratio : 2.35:1
Frame rate : 23.976 fps
Color space : YUV
Chroma subsampling : 4:2:0
Bit depth : 8 bits
Scan type : Progressive
Bits/(Pixel*Frame) : 0.199
Stream size : 4.87 GiB (80%)
Writing library : x264 core 133 r2334 a3ac64b
Encoding settings : cabac=1 / ref=4 / deblock=1:0:0 / analyse=0x3:0x133 / me=umh / subme=10 / psy=1 / psy_rd=1.00:0.00 / mixed_ref=1 / me_range=32 / chroma_me=1 / trellis=2 / 8x8dct=1 / cqm=0 / deadzone=21,11 / fast_pskip=0 / chroma_qp_offset=-2 / threads=6 / lookahead_threads=1 / sliced_threads=0 / nr=0 / decimate=1 / interlaced=0 / bluray_compat=0 / constrained_intra=0 / bframes=10 / b_pyramid=2 / b_adapt=2 / b_bias=0 / direct=3 / weightb=1 / open_gop=0 / weightp=2 / keyint=240 / keyint_min=24 / scenecut=40 / intra_refresh=0 / rc_lookahead=50 / rc=2pass / mbtree=0 / bitrate=7462 / ratetol=2.0 / qcomp=1.00 / qpmin=0 / qpmax=51 / qpstep=4 / cplxblur=20.0 / qblur=0.5 / vbv_maxrate=50000 / vbv_bufsize=62500 / nal_hrd=none / ip_ratio=1.40 / pb_ratio=1.30 / aq=1:1.00
Color primaries : BT.709-5, BT.1361, IEC 61966-2-4, SMPTE RP177
Transfer characteristics : BT.709-5, BT.1361
Matrix coefficients : BT.709-5, BT.1361, IEC 61966-2-4 709, SMPTE RP177

Audio #1
ID : 2
Format : AC-3
Format/Info : Audio Coding 3
Mode extension : CM (complete main)
Codec ID : A_AC3
Duration : 1h 35mn
Bit rate mode : Constant
Bit rate : 384 Kbps
Channel(s) : 6 channels
Channel positions : Front: L C R, Side: L R, LFE
Sampling rate : 48.0 KHz
Bit depth : 16 bits
Video delay : 2s 283ms
Stream size : 263 MiB (4%)
Title : Дубляж [R5]
Language : Russian

Audio #2
ID : 3
Format : AC-3
Format/Info : Audio Coding 3
Mode extension : CM (complete main)
Codec ID : A_AC3
Duration : 1h 35mn
Bit rate mode : Constant
Bit rate : 384 Kbps
Channel(s) : 6 channels
Channel positions : Front: L C R, Side: L R, LFE
Sampling rate : 48.0 KHz
Bit depth : 16 bits
Stream size : 263 MiB (4%)
Title : MVO
Language : Russian

Audio #3
ID : 4
Format : AC-3
Format/Info : Audio Coding 3
Mode extension : CM (complete main)
Codec ID : A_AC3
Duration : 1h 35mn
Bit rate mode : Constant
Bit rate : 448 Kbps
Channel(s) : 6 channels
Channel positions : Front: L C R, Side: L R, LFE
Sampling rate : 48.0 KHz
Bit depth : 16 bits
Stream size : 307 MiB (5%)
Title : AVO - Визгунов
Language : Russian

Audio #4
ID : 5
Format : AC-3
Format/Info : Audio Coding 3
Mode extension : CM (complete main)
Codec ID : A_AC3
Duration : 1h 35mn
Bit rate mode : Constant
Bit rate : 384 Kbps
Channel(s) : 6 channels
Channel positions : Front: L C R, Side: L R, LFE
Sampling rate : 48.0 KHz
Bit depth : 16 bits
Stream size : 263 MiB (4%)

Text #1
ID : 6
Format : UTF-8
Codec ID : S_TEXT/UTF8
Codec ID/Info : UTF-8 Plain Text
Title : на места без перевода
Language : Russian

Text #2
ID : 7
Format : UTF-8
Codec ID : S_TEXT/UTF8
Codec ID/Info : UTF-8 Plain Text
Title : Полные
Language : Russian

Text #3
ID : 8
Format : UTF-8
Codec ID : S_TEXT/UTF8
Codec ID/Info : UTF-8 Plain Text

Menu
00:00:00.000 : en:01. Prologue
00:02:30.817 : en:02. Milo's Presentation
00:07:55.099 : en:03. A Most Intriguing Proposition
00:13:42.530 : en:04. The Expedition Begins
00:18:47.126 : en:05. The Lair of the Leviathan
00:26:25.125 : en:06. Convoy
00:31:32.807 : en:07. New Friends
00:36:16.716 : en:08. Fire!
00:40:53.284 : en:09. Welcome to the City of Atlantis
00:46:56.230 : en:10. Questions
00:53:53.355 : en:11. The Missing Page
00:59:41.119 : en:12. The Heart of Atlantis
01:06:22.228 : en:13. A Change of Heart
01:09:40.175 : en:14. "Save Atlantis, Save My Daughter"
01:13:09.343 : en:15. The Right Thing to Do
01:19:43.779 : en:16. Saving Atlantis
01:25:10.772 : en:17. Proof
01:28:02.568 : en:18. A Place Among Kings
01:29:27.028 : en:19. End Credits





Релиз группы:



   Похожие торренты   Торрент   Размер 
В этой теме нет новых непрочитанных сообщений. Атлантида: Затерянный мир / Atlantis: The Lost Empire (2001) BDRemux от FREEISLAND

4 | 2

19.49 ГБ

В этой теме нет новых непрочитанных сообщений. Атлантида: Затерянный мир / Atlantis: The Lost Empire (2001) BDRip от KinoRay

130 | 14

2.14 ГБ

В этой теме нет новых непрочитанных сообщений. Атлантида: Затерянный мир / Atlantis: The Lost Empire (2001) BDRip-AVC | iPad | D

223 | 22

1.7 ГБ

В этой теме нет новых непрочитанных сообщений. Атлантида: Затерянный мир / Atlantis: The Lost Empire (2001) BDRip 720p от leonardo 59

123 | 8

2.16 ГБ

В этой теме нет новых непрочитанных сообщений. Атлантида: Затерянный мир / Atlantis: The Lost Empire (2001) BDRip 720p от HDCLUB

48 | 25

7.31 ГБ

В этой теме нет новых непрочитанных сообщений. Атлантида: Затерянный мир / Atlantis: The Lost Empire (2001) DVDRip

46 | 9

678.29 МБ

В этой теме нет новых непрочитанных сообщений. Атлантида: Затерянный мир / Atlantis: The Lost Empire (2001) HDTVRip-AVC

213 | 6

1.33 ГБ




Вы не можете начинать темы
Вы не можете отвечать на сообщения
Вы не можете редактировать свои сообщения
Вы не можете удалять свои сообщения
Вы не можете добавлять вложения

Перейти:  
Для Мосгорсуда, Роскомнадзора и рекламодателей: mosgorsud-torrent[собачка]yandex.ru
 Вход
ppkBB3cker v.2 © 2008-2014 @ PPK
[ Time : 0.020s | 16 Queries | GZIP : On ]

Торрент трекер RUTOR.IN, Не можете зайти на rutor.org? Какой новый адрес рутор? Какое зеркало рутор? Не работает rutor.org и зеркала? Тогда наш торрент специально для вас. Rutor.in неофициальное зеркало rutor. В случае если у Вас заблокирован rutor или вдруг Вы не можете на него зайти, то Вы без труда сможете скачать бесплатно и без рекламы последние новинки кино, игр, сериалов и прочего у нас, на Rutor.in. Не нужно использовать прокси, чтобы зайти на рутор, достаточно воспользоваться нашим ресурсом. Все новые фильмы, игры, сериалы, книги и музыка за 2013 и 2014 годы через торрент бесплатно. Скачивайте фильмы в хорошем качестве, игры для пк, xbox, playstation без регистрации. У нас вы найдете новые Зарубежные сериалы и Русские сериалы 2013, 2014, 2015 годов. Оставайтесь с нами, качайте любимые фильмы, игры, сериалы, книги и музыку.