img image001 image001 image001 image001 image001 image001 image001 image001 image001 image001 image001 image001 image001 image001 image001

Planets Sun Sun Sun
Статистика раздачи
Автор: Снежана | Размер: 4.37 ГБ | Добавлен: 27 июл 2013
Раздают: 86    Качают: 22
Скачать торрент
Скачать торрент
Описание торрента

СообщениеДобавлено: 27 июл 2013 

Атлантида 2: Возвращение Майло / Atlantis: Milo's Return


Год выпуска: 2003
Страны: США
Жанры: мультфильм, боевик, комедия, приключения, семейный,
Продолжительность: 01:20:32
Перевод: Профессиональный (дублированный)
Cубтитры: English (SRT/UTF-8)

Режиссер: Виктор Кук, Тоби Шелтон, Тэд Стоунс
Сценарий: Томас Харт, Генри Гилрой, Кевин Хоуппс, ...
Продюсер: Тэд Стоунс
Композитор : Дон Харпер
Монтаж: Джон Ройер

Описание: Мийло, Кида и команда смелых исследователей Атлантиды возвращаются в новых приключениях, полных ожидания и действия.
В течение первой экспедиции Майло и Кида открыли подводное царство, а так же спасли его и всех его обитателей.
Теперь опасность подкралась с поверхности воды и отважным героям придется покинуть Атлантиду;

Премьера (мир): 23 апреля 2003, ...
Релиз на DVD: 12 октября 2010, «Уолт Дисней Компани СНГ», ...
Рейтинг MPAA:




Качество: BDRip 1080р
Формат: MKV
Видео кодек: AVC
Аудио кодек: AC3
Видео: 1828x1080 (1.693:1), 23.976 fps, AVC, 6 697 Kbps
Аудио #1: AC3, 192 Kbps, 48.0 KHz, 2 ch Дубляж [R5]
Аудио #2: AC3, 448 Kbps, 48.0 KHz, 6 ch MVO
Аудио #3: AC3, 448 Kbps, 48.0 KHz, 6 ch English

Лог:
- x264 [info]: frame I:1145 Avg QP:12.82 size:170686
- x264 [info]: frame P:34233 Avg QP:15.00 size: 63132
- x264 [info]: frame B:80303 Avg QP:16.07 size: 20842

General
Complete name : Atlantida.2.2003.BDRip.1080p.mkv
Format : Matroska
File size : 4.37 GiB
Duration : 1h 20mn
Overall bit rate : 7 762 Kbps
Movie name : релиз от FREEISLAND.ORG
Encoded date : UTC 2013-07-16 12:39:18
Writing application : mkvmerge v6.1.0 ('Old Devil') built on Mar 2 2013 14:32:37
Writing library : libebml v1.3.0 + libmatroska v1.4.0

Video
ID : 1
Format : AVC
Format/Info : Advanced Video Codec
Format profile : High@L4.1
Format settings, CABAC : Yes
Format settings, ReFrames : 4 frames
Muxing mode : Container profile=Unknown@4.1
Codec ID : V_MPEG4/ISO/AVC
Duration : 1h 20mn
Bit rate : 6 697 Kbps
Width : 1 828 pixels
Height : 1 080 pixels
Display aspect ratio : 1.693
Frame rate : 23.976 fps
Color space : YUV
Chroma subsampling : 4:2:0
Bit depth : 8 bits
Scan type : Progressive
Bits/(Pixel*Frame) : 0.141
Stream size : 3.67 GiB (84%)
Writing library : x264 core 133 r2334 a3ac64b
Encoding settings : cabac=1 / ref=4 / deblock=1:0:0 / analyse=0x3:0x133 / me=umh / subme=10 / psy=1 / psy_rd=1.00:0.00 / mixed_ref=1 / me_range=32 / chroma_me=1 / trellis=2 / 8x8dct=1 / cqm=0 / deadzone=21,11 / fast_pskip=0 / chroma_qp_offset=-2 / threads=6 / lookahead_threads=1 / sliced_threads=0 / nr=0 / decimate=1 / interlaced=0 / bluray_compat=0 / constrained_intra=0 / bframes=8 / b_pyramid=2 / b_adapt=2 / b_bias=0 / direct=3 / weightb=1 / open_gop=0 / weightp=2 / keyint=240 / keyint_min=24 / scenecut=40 / intra_refresh=0 / rc_lookahead=50 / rc=2pass / mbtree=0 / bitrate=6697 / ratetol=2.0 / qcomp=1.00 / qpmin=0 / qpmax=50 / qpstep=4 / cplxblur=20.0 / qblur=0.5 / vbv_maxrate=50000 / vbv_bufsize=62500 / nal_hrd=none / ip_ratio=1.40 / pb_ratio=1.30 / aq=1:1.00
Color primaries : BT.709-5, BT.1361, IEC 61966-2-4, SMPTE RP177
Transfer characteristics : BT.709-5, BT.1361
Matrix coefficients : BT.709-5, BT.1361, IEC 61966-2-4 709, SMPTE RP177

Audio #1
ID : 2
Format : AC-3
Format/Info : Audio Coding 3
Mode extension : CM (complete main)
Codec ID : A_AC3
Duration : 1h 20mn
Bit rate mode : Constant
Bit rate : 192 Kbps
Channel(s) : 2 channels
Channel positions : Front: L R
Sampling rate : 48.0 KHz
Bit depth : 16 bits
Stream size : 111 MiB (2%)
Title : Дубляж [R5]
Language : Russian

Audio #2
ID : 3
Format : AC-3
Format/Info : Audio Coding 3
Mode extension : CM (complete main)
Codec ID : A_AC3
Duration : 1h 20mn
Bit rate mode : Constant
Bit rate : 448 Kbps
Channel(s) : 6 channels
Channel positions : Front: L C R, Side: L R, LFE
Sampling rate : 48.0 KHz
Bit depth : 16 bits
Stream size : 258 MiB (6%)
Title : MVO
Language : Russian

Audio #3
ID : 4
Format : AC-3
Format/Info : Audio Coding 3
Mode extension : CM (complete main)
Codec ID : A_AC3
Duration : 1h 20mn
Bit rate mode : Constant
Bit rate : 448 Kbps
Channel(s) : 6 channels
Channel positions : Front: L C R, Side: L R, LFE
Sampling rate : 48.0 KHz
Bit depth : 16 bits
Stream size : 258 MiB (6%)

Text
ID : 5
Format : UTF-8
Codec ID : S_TEXT/UTF8
Codec ID/Info : UTF-8 Plain Text
Title : Full

Menu
00:00:00.000 : en:01. Opening Titles/Rebuilding Atlantis
00:06:51.619 : en:02. Meeting Kraken
00:14:13.185 : en:03. Learning About Volgud
00:20:53.085 : en:04. Saving Audrey
00:27:33.193 : en:05. Defeating the Kraken
00:34:45.833 : en:06. Carnaby's Ranch
00:40:59.665 : en:07. Returning the Pot
00:52:13.004 : en:08. Hellstrom's Revenge
01:00:24.078 : en:09. Battle for the Spear
01:10:41.946 : en:10. The Heart of Atlantis/End Credits





Релиз группы:



   Похожие торренты   Торрент   Размер 
В этой теме нет новых непрочитанных сообщений. Атлантида 2: Возвращение Майло / Atlantis: Milo's Return (2003) BDRemux 1080p от FREEISLAND

9 | 10

14.28 ГБ

В этой теме нет новых непрочитанных сообщений. Атлантида 2: Возвращение Майло / Atlantis: Milo's Return (2003) BDRip-AVC | iPad | D

189 | 18

1.39 ГБ

В этой теме нет новых непрочитанных сообщений. Атлантида 2: Возвращение Майло / Atlantis II: Milo's Return (2003) DVDRip-AVC

5 | 4

615.03 МБ

В этой теме нет новых непрочитанных сообщений. Атлантида: Затерянный мир / Atlantis: The Lost Empire (2001) BDRip 1080р от Freeisland

107 | 20

6.06 ГБ

В этой теме нет новых непрочитанных сообщений. Майло / Bad Milo (2013) BDRip 720p от CINEMANIA | L1

26 | 7

5.81 ГБ

В этой теме нет новых непрочитанных сообщений. Майло / Bad Milo (2013) BDRip 1080p от CINEMANIA | L1

22 | 5

7.11 ГБ

В этой теме нет новых непрочитанных сообщений. Майло / Bad Milo (2013) BDRip 1080p от CINEMANIA | P | Лицензия

125 | 48

7.22 ГБ




Вы не можете начинать темы
Вы не можете отвечать на сообщения
Вы не можете редактировать свои сообщения
Вы не можете удалять свои сообщения
Вы не можете добавлять вложения

Перейти:  
Для Мосгорсуда, Роскомнадзора и рекламодателей: mosgorsud-torrent[собачка]yandex.ru
 Вход
ppkBB3cker v.2 © 2008-2014 @ PPK
[ Time : 0.060s | 16 Queries | GZIP : Off ]

cron