img image001 image001 image001 image001 image001 image001 image001 image001 image001 image001 image001 image001 image001 image001 image001

Planets Sun Sun Sun
Статистика раздачи
Автор: Снежана | Размер: 11.57 ГБ | Добавлен: 27 июл 2013
Раздают: 4    Качают: 3
Скачать торрент
Скачать торрент
Описание торрента

СообщениеДобавлено: 27 июл 2013 

«За коралл ответишь!»



#77
Страна: Корея Южная, США / Animation Picture Company, Wonderworld Studios
Жанр: мультфильм, мюзикл, семейный
Год выпуска: 2012
Продолжительность: 01:20:19

Перевод: Профессиональный (дублированный)
Cубтитры: нет

Режиссер: Малкольм Д. Ли / Malcolm D. Lee

В ролях:Дрейк Белл, Энди Дик, Фрэн Дрешер, Фрэнки Джонас, Джейми Кеннеди, Донал Лог, Бизи Филиппс, Роб Шнайдер, Стефен Стэнтон, Мэттью Уиллиг

Роли дублировали: Никита Пресняков, Антон Богданов, Дина Гарипова, Владимир Рыбальченко

Описание: Пай живет на прекрасном коралловом Рифе, а по соседству обитают сотни злобных акул. Пай — единственный на Рифе, кто уверен, рано или поздно акулы атакуют и нужно быть готовым за себя постоять. Жители Рифа всегда мирно соседствовали с акулами и не планируют ни с кем воевать. Пай пытается организовать занятия по самообороне, но на них никто не приходит, и ему приходится изучать боевые искусства одному, под руководством мудрого черепаха Нерисса.
Однажды в городе появляется веселый Ронни, который увлекает местных жителей в подготовку к водному празднику в жанре представлений Cirque De Soleil. Жители Рифа очарованы Ронни! Но никто не догадывается, что Ронни прислали акулы: его задача усыпить бдительность жителей и захватить Риф…




Исходник: Bly-ray 1080p
Качество: BDRemux 1080p
Формат: MKV

Видео: 1920x1080, MPEG-4 AVC Video 19975 kbps 1080p / 23,976 fps / 16:9 / High Profile 4.1
Аудио: Dolby Digital Audio Russian 640 kbps 5.1 / 48 kHz / 640 kbps / DN -4dB
Примечание: Фильм разбит на главы, как на оригинальном Blu-ray диске. Русскую дорожку Dolby TrueHD Audio в раздачу не включил, так как она не воспроизводится в контейнере MKV.

Раздача от:
Общее
Полное имя : Rif.2012.D.BDRemux.1080p.mkv
Формат : Matroska
Версия формата : Version 4 / Version 2
Размер файла : 11,6 Гбайт
Продолжительность : 1 ч. 20 м.
Режим общего битрейта : Переменный
Общий поток : 20,6 Мбит/сек
Дата кодирования : UTC 2013-07-16 22:54:51
Программа кодирования : mkvmerge v6.1.0 ('Old Devil') built on Mar 2 2013 14:32:37
Библиотека кодирования : libebml v1.3.0 + libmatroska v1.4.0

Видео
Идентификатор : 1
Формат : AVC
Формат/Информация : Advanced Video Codec
Профиль формата : High@L4.1
Параметр CABAC формата : Да
Параметр ReFrames формата : 4 кадра
Параметр GOP формата : M=3, N=18
Идентификатор кодека : V_MPEG4/ISO/AVC
Продолжительность : 1 ч. 20 м.
Вид битрейта : Переменный
Битрейт : 19,6 Мбит/сек
Максимальный битрейт : 27,0 Мбит/сек
Ширина : 1920 пикселей
Высота : 1080 пикселей
Соотношение сторон : 16:9
Режим частоты кадров : Постоянный
Частота кадров : 23,976 кадра/сек
Цветовое пространство : YUV
Субдискретизация насыщенности : 4:2:0
Битовая глубина : 8 бит
Тип развёртки : Прогрессивная
Бит/(Пиксели*Кадры) : 0.394
Размер потока : 11,0 Гбайт (95%)
Язык : English
Default : Да
Forced : Нет

Аудио
Идентификатор : 2
Формат : AC-3
Формат/Информация : Audio Coding 3
Расширение режима : CM (complete main)
Параметр Endianness формата : Big
Идентификатор кодека : A_AC3
Продолжительность : 1 ч. 20 м.
Вид битрейта : Постоянный
Битрейт : 640 Кбит/сек
Каналы : 6 каналов
Расположение каналов : Front: L C R, Side: L R, LFE
Частота : 48,0 КГц
Битовая глубина : 16 бит
Метод сжатия : С потерями
Размер потока : 368 Мбайт (3%)
Язык : Russian
Default : Да
Forced : Нет

Меню
00:00:00.000 : en:00:00:00.000
00:07:11.723 : en:00:07:11.723
00:15:15.498 : en:00:15:15.498
00:23:59.146 : en:00:23:59.146
00:30:55.896 : en:00:30:55.896
00:37:50.518 : en:00:37:50.518
00:45:03.284 : en:00:45:03.284
00:51:34.341 : en:00:51:34.341
00:59:01.747 : en:00:59:01.747
01:06:51.049 : en:01:06:51.049
01:14:51.112 : en:01:14:51.112





   Похожие торренты   Торрент   Размер 
В этой теме нет новых непрочитанных сообщений. Риф / The Reef 2: High Tide (2012) Blu-ray 1080p от Youtracker и HDCLUB

0 | 1

15.76 ГБ

В этой теме нет новых непрочитанных сообщений. Риф / The Reef 2: High Tide (2012) DVD9 R5 от Youtracker | лицензия

0 | 2

5.4 ГБ

В этой теме нет новых непрочитанных сообщений. Риф / The Reef 2: High Tide (2012) DVD5 от Youtracker | сжатый

0 | 2

4.37 ГБ

В этой теме нет новых непрочитанных сообщений. Риф / Риф 2: Прилив / The Reef 2: High Tide (2012) BDRip 1080p | 3D-Video | D

112 | 1

6.12 ГБ

В этой теме нет новых непрочитанных сообщений. Риф / The Reef 2: High Tide (2012) BDRip-HEVC 1080p от FREEISLAND

66 | 17

2.81 ГБ

В этой теме нет новых непрочитанных сообщений. Риф 3D / The Reef 2: High Tide (2012) HDRip | D

29 | 3

1.37 ГБ

В этой теме нет новых непрочитанных сообщений. Риф 3D / The Reef 2: High Tide (2012) HD | D | Трейлер

2 | 2

58.21 МБ




Вы не можете начинать темы
Вы не можете отвечать на сообщения
Вы не можете редактировать свои сообщения
Вы не можете удалять свои сообщения
Вы не можете добавлять вложения

Перейти:  
Для Мосгорсуда, Роскомнадзора и рекламодателей: mosgorsud-torrent[собачка]yandex.ru
 Вход
ppkBB3cker v.2 © 2008-2014 @ PPK
[ Time : 0.033s | 14 Queries | GZIP : Off ]
CGP output time : 0.046s | 5 Queries | GZIP : Off

Торрент трекер RUTOR.IN, Не можете зайти на rutor.org? Какой новый адрес рутор? Какое зеркало рутор? Не работает rutor.org и зеркала? Тогда наш торрент специально для вас. Rutor.in неофициальное зеркало rutor. В случае если у Вас заблокирован rutor или вдруг Вы не можете на него зайти, то Вы без труда сможете скачать бесплатно и без рекламы последние новинки кино, игр, сериалов и прочего у нас, на Rutor.in. Не нужно использовать прокси, чтобы зайти на рутор, достаточно воспользоваться нашим ресурсом. Все новые фильмы, игры, сериалы, книги и музыка за 2013 и 2014 годы через торрент бесплатно. Скачивайте фильмы в хорошем качестве, игры для пк, xbox, playstation без регистрации. У нас вы найдете новые Зарубежные сериалы и Русские сериалы 2013, 2014, 2015 годов. Оставайтесь с нами, качайте любимые фильмы, игры, сериалы, книги и музыку.