img image001 image001 image001 image001 image001 image001 image001 image001 image001 image001 image001 image001 image001 image001 image001

Planets Sun Sun Sun
Статистика раздачи
Автор: Снежана | Размер: 1.31 ГБ | Добавлен: 27 июл 2013
Раздают: 6    Качают: 2
Скачать торрент
Скачать торрент
Описание торрента

СообщениеДобавлено: 27 июл 2013 

«When the sea disappears»



#77
Страна: Испания, Индия / Baleuko S.L., Image Venture...
Жанр: мультфильм, приключения
Год выпуска: 2012
Продолжительность: 01:10:08

Перевод: Профессиональный (многоголосый, закадровый)
Оригинальная аудиодорожка: нет
Cубтитры: нет

Режиссер: Иван Онека / Ivan Oneka, Горка Васкез / Gorka Vázquez

Описание: Пухленький Опил любит играть в монстров, рассматривать комиксы, жевать конфеты и чипсы. А вот рыбу он терпеть не может. Но мама хочет, чтобы он правильно питался, и готовит ему на ужин «рыбу желаний». «Если ты ее съешь, твои желания сбудутся», — убеждает она сына, чтобы тот проглотил хоть кусочек. Опил не воспринимает маму всерьез и пережевывает ненавистное блюдо, бубня, что он хочет, чтобы на Землю прилетели инопланетяне и уничтожили всех водоплавающих. К изумлению мальчика и всех окружающих, его желание действительно сбывается: нашу планету атакует армия пришельцев с Сатурна. Оккупанты уничтожают водных обитателей и иссушают океаны. Как же остановить коварных мародеров?






Исходник: DVD5 R5
Качество видео: DVDRip
Формат видео: AVI

Видео: XviD; 720x400 (16:9); 2400 Kbps; 25,000 fps; 0,333 bpp
Аудио: АС3; 256 Kbps; CBR; 6 ch; 16 bit, 48 kHz

Раздача от:
Общее
Полное имя : Mest.volshebnoy.rybki.2012.P.DVDRip_[Youtracker]_by_avproh.avi
Формат : AVI
Формат/Информация : Audio Video Interleave
Размер файла : 1,31 Гбайт
Продолжительность : 1 ч. 10 м.
Общий поток : 2666 Кбит/сек
Программа кодирования : VirtualDubModRus 1.5.10.2 (build 2542/release)
Библиотека кодирования : VirtualDubMod build 2542/release

Видео
Идентификатор : 0
Формат : MPEG-4 Visual
Профиль формата : Advanced Simple@L5
Параметр BVOP формата : 1
Параметр QPel формата : Нет
Параметр GMC формата : Без точки перехода
Параметр матрицы формата : Выборочная
Идентификатор кодека : XVID
Идентификатор кодека/Подсказка : XviD
Продолжительность : 1 ч. 10 м.
Битрейт : 2400 Кбит/сек
Ширина : 720 пикселей
Высота : 400 пикселей
Соотношение сторон : 16:9
Частота кадров : 25,000 кадров/сек
Цветовое пространство : YUV
Субдискретизация насыщенности : 4:2:0
Битовая глубина : 8 бит
Тип развёртки : Прогрессивная
Метод сжатия : С потерями
Бит/(Пиксели*Кадры) : 0.333
Размер потока : 1,18 Гбайт (90%)
Библиотека кодирования : XviD 65

Аудио
Идентификатор : 1
Формат : AC-3
Формат/Информация : Audio Coding 3
Расширение режима : CM (complete main)
Параметр Endianness формата : Big
Идентификатор кодека : 2000
Продолжительность : 1 ч. 10 м.
Вид битрейта : Постоянный
Битрейт : 256 Кбит/сек
Каналы : 6 каналов
Расположение каналов : Front: L C R, Side: L R, LFE
Частота : 48,0 КГц
Битовая глубина : 16 бит
Метод сжатия : С потерями
Размер потока : 128 Мбайт (10%)
Выравнивание : Разделение по промежуткам
Продолжительность промежутка : 40 мс. (1,00 видеокадр)
Время предзагрузки промежутка : 500 мс.





   Похожие торренты   Торрент   Размер 
В этой теме нет новых непрочитанных сообщений. Месть волшебной рыбки / The Wish Fish (2012) DVDRip от Youtracker | лицензия

0 | 4

745.22 МБ

В этой теме нет новых непрочитанных сообщений. Месть волшебной рыбки / The Wish Fish (2012) DVDRip-AVC от Youtracker | лицензия

3 | 2

1.3 ГБ

В этой теме нет новых непрочитанных сообщений. Месть волшебной рыбки / The Wish Fish (2012) DVD5 R5 от Youtracker | лицензия

2 | 6

4.27 ГБ

В этой теме нет новых непрочитанных сообщений. Маленькие рыбки / Маленькая рыбка / Little Fish (2005) BDRip 720p от FireBit

0 | 6

3.47 ГБ

В этой теме нет новых непрочитанных сообщений. Голубая рыба-бабочка OVA / B.B. Fish / Blue Butterfly Fish (1994) DVDRip-AVC | L2

32 | 5

431.5 МБ

В этой теме нет новых непрочитанных сообщений. Помогите! Я рыба / Hjælp, jeg er en fisk / A Fish Tale / Help! I'm a Fish (2000) DVDRip | P1

461 | 12

1.46 ГБ

В этой теме нет новых непрочитанных сообщений. Месть придурков / Месть ботанов / Revenge of the Nerds (1984) HDTVRip от Youtracker | D

1 | 21

744.69 МБ




Вы не можете начинать темы
Вы не можете отвечать на сообщения
Вы не можете редактировать свои сообщения
Вы не можете удалять свои сообщения
Вы не можете добавлять вложения

Перейти:  
Для Мосгорсуда, Роскомнадзора и рекламодателей: mosgorsud-torrent[собачка]yandex.ru
 Вход
ppkBB3cker v.2 © 2008-2014 @ PPK
[ Time : 0.050s | 14 Queries | GZIP : Off ]

Торрент трекер RUTOR.IN, Не можете зайти на rutor.org? Какой новый адрес рутор? Какое зеркало рутор? Не работает rutor.org и зеркала? Тогда наш торрент специально для вас. Rutor.in неофициальное зеркало rutor. В случае если у Вас заблокирован rutor или вдруг Вы не можете на него зайти, то Вы без труда сможете скачать бесплатно и без рекламы последние новинки кино, игр, сериалов и прочего у нас, на Rutor.in. Не нужно использовать прокси, чтобы зайти на рутор, достаточно воспользоваться нашим ресурсом. Все новые фильмы, игры, сериалы, книги и музыка за 2013 и 2014 годы через торрент бесплатно. Скачивайте фильмы в хорошем качестве, игры для пк, xbox, playstation без регистрации. У нас вы найдете новые Зарубежные сериалы и Русские сериалы 2013, 2014, 2015 годов. Оставайтесь с нами, качайте любимые фильмы, игры, сериалы, книги и музыку.